<?xml version="1.0" standalone="no"?>
<!DOCTYPE svg PUBLIC "-//W3C//DTD SVG 1.1//EN" "http://www.w3.org/Graphics/SVG/1.1/DTD/svg11.dtd" >
<svg xmlns="http://www.w3.org/2000/svg">
<metadata>Generated by IcoMoon</metadata>
<defs>
<font id="icomoon" horiz-adv-x="512">
<font-face units-per-em="512" ascent="480" descent="-32" />
<missing-glyph horiz-adv-x="512" />
<glyph unicode="&#x20;" d="" horiz-adv-x="256" />
<glyph unicode="&#xe600;" d="M398.839 60.317c12.433 1.924 38.387 29.411 31.873 44.075-5.024 11.309-87.33 68.755-112.557 86.151-48.775 33.636-6.385 94.305-27.675 136.962-32.24 64.6-81.38 56.563-82.896 44.047 10.831-0.301 55.565-14.179 61.88-83.333 5.404-59.184-18.073-55.948 17.861-104.38 0.334-0.45 62.338-74.346 111.514-123.521zM87.275 310.3c-24.035-59.331 13.856-140.606 110.586-141.375 51.142-0.406 69.873 19.707 104.062-1.476-10.517 10.764-8.639 49.739-94.613 29.953-47.195-10.861-88.987 25.254-97.126 59.202-17.692 73.793 42.624 107.389 97.401 114.947 7.69 33.694-89.326 15.231-120.31-61.25zM209.832 353.123c-36.189 14.661-88.451-14.371-84.917-68.387 1.737-26.552 18.696-44.1 40.743-56.438-19.364 17.064-51.303 75.832 15.638 101.274 43.267 16.445 65.503-26 70.113-59.411 9.87 16.346 5.073 64.063-41.577 82.96z" />
<glyph unicode="&#xe601;" d="M294.775 308.154h-77.548c-2.34 0-4.237-1.896-4.237-4.236v-3.883c0-2.34 1.897-4.236 4.237-4.236h77.548c2.34 0 4.236 1.897 4.236 4.236v3.883c0 2.34-1.897 4.236-4.236 4.236zM295.396 375.616c0 0-18.618-4.663-41.79-4.663s-37.001 4.663-37.001 4.663c-7.886 0-14.302-6.415-14.302-14.3v-33.579h107.395v33.579c0 7.885-6.416 14.3-14.302 14.3zM250.89 290.689v-189.917h-33.664c-2.34 0-4.237-1.897-4.237-4.236v-3.883c0-2.34 1.897-4.236 4.237-4.236h77.548c2.34 0 4.236 1.897 4.236 4.236v3.883c0 2.34-1.897 4.236-4.236 4.236h-33.665v189.917c0 2.822-2.288 5.11-5.11 5.11s-5.11-2.287-5.11-5.11zM0 480v-512h512v512h-512zM345.043 102.894c0-16.933-13.728-30.661-30.661-30.661h-1.318v-5.75c0-3.797-3.078-6.875-6.875-6.875h-17.762c-3.797 0-6.875 3.078-6.875 6.875v5.75h-51.953v-5.75c0-3.797-3.078-6.875-6.875-6.875h-17.762c-3.797 0-6.875 3.078-6.875 6.875v5.75h-0.466c-16.934 0-30.66 13.728-30.66 30.661v194.182c0 14.128 9.569 25.992 22.57 29.545v34.693c0 14.929 12.147 27.075 27.077 27.075h78.79c14.931 0 27.077-12.147 27.077-27.075v-34.693c13-3.554 22.569-15.418 22.569-29.545v-194.182zM505.243-25.597h-54.488l54.488 52.529v-52.529z" />
<glyph unicode="&#xe602;" d="M0 480v-512h512v512h-512zM421.512 233.155c0 0-106.303 25.602-157.512 1.402 6.536-13.251 46.825-90.371 46.825-90.371s16.087-3.668 30.078-8.281c17.425-5.747 13.951-33.399 13.951-33.399l-42.651-0.068-20.307-37.71c0 0-26.548 9.616-23.44 26.416 3.166 17.115 8.156 32.631 8.156 32.631s-48.991 69.692-57.595 82.404c-43.342-24.257-68.181-142.801-68.181-142.801s-25.701 5.95-31.716 33.041c-2.254 10.152 0.042 26.728 4.761 45.921l-16.263 26.046c-1.967 3.15-1.007 7.297 2.141 9.263l2.534 1.582c3.15 1.966 7.297 1.007 9.264-2.142l8.258-13.226c4.658 15.476 10.251 31.642 15.918 46.956l-13.090 20.964c-1.966 3.15-1.007 7.297 2.142 9.263l2.535 1.582c3.15 1.967 7.297 1.007 9.264-2.142l6.479-10.377c11.959 30.696 22.403 54.088 22.403 54.088l-33.879 62.858c0 0-0.071 10.966 14.379 19.636 10.536 6.322 20.667 2.131 20.667 2.131l39.904-58.368c0 0 29.837-1.413 65.845-5.215l-7.447 11.927c-1.966 3.15-1.007 7.297 2.142 9.263l2.534 1.582c3.15 1.967 7.297 1.007 9.264-2.142l14.392-23.048c14.57-1.842 29.372-4.075 43.079-6.755l-7.072 11.326c-1.966 3.15-1.007 7.297 2.142 9.264l2.534 1.582c3.15 1.966 7.297 1.007 9.264-2.142l15.731-25.195c16.042-4.338 28.615-9.538 34.281-15.762 18.659-20.492 18.281-41.981 18.281-41.981zM505.243-25.597h-54.488l54.488 52.529v-52.529z" />
<glyph unicode="&#xe603;" d="M160.445 187.384h-52.786c-1.593 0-2.883-1.291-2.883-2.884v-2.643c0-1.592 1.291-2.884 2.883-2.884h52.786c1.593 0 2.883 1.291 2.883 2.884v2.643c0 1.594-1.292 2.884-2.883 2.884zM160.867 233.304c0 0-12.673-3.174-28.445-3.174s-25.186 3.174-25.186 3.174c-5.368 0-9.735-4.367-9.735-9.733v-22.856h73.103v22.856c0 5.367-4.368 9.733-9.736 9.733zM130.572 175.495v-129.274h-22.915c-1.593 0-2.883-1.291-2.883-2.884v-2.643c0-1.592 1.291-2.884 2.883-2.884h52.786c1.593 0 2.883 1.291 2.883 2.884v2.643c0 1.592-1.292 2.884-2.883 2.884h-22.915v129.274c0 1.921-1.558 3.478-3.478 3.478-1.92 0-3.477-1.558-3.477-3.478zM0 480v-512h512v512h-512zM194.661 47.666c0-11.526-9.344-20.87-20.87-20.87h-0.897v-3.913c0-2.584-2.095-4.68-4.679-4.68h-12.090c-2.584 0-4.679 2.095-4.679 4.68v3.913h-35.364v-3.913c0-2.584-2.095-4.68-4.68-4.68h-12.093c-2.585 0-4.68 2.095-4.68 4.68v3.913h-0.317c-11.526 0-20.87 9.344-20.87 20.87v132.178c0 9.616 6.513 17.692 15.363 20.111v23.615c0 10.161 8.268 18.429 18.432 18.429h53.631c10.163 0 18.432-8.268 18.432-18.429v-23.615c8.85-2.418 15.363-10.495 15.363-20.111v-132.178zM297.297 161.438h-15.584l-13.432 0.192 0.192-13.423v-16.781c-3.679-0.788-8.017-1.18-13.030-1.18-4.996 0-9.335 0.393-13.030 1.18v16.781l0.209 13.423-13.432-0.192h-15.601c-0.916 3.55-1.381 7.631-1.381 12.233 0 4.611 0.466 8.756 1.381 12.442h15.601l13.432-0.2-0.209 13.625v16.579c3.696 0.788 8.034 1.189 13.030 1.189 5.013 0 9.35-0.401 13.030-1.189v-16.579l-0.192-13.625 13.432 0.2h15.584c0.932-4.217 1.382-8.458 1.382-12.74 0-4.272-0.45-8.257-1.382-11.935zM419.053 253.391l-28.109-0.045-13.382-24.852c0 0-17.496 6.338-15.448 17.409 2.087 11.28 5.375 21.504 5.375 21.504s-32.286 45.928-37.957 54.306c-28.563-15.986-44.933-94.109-44.933-94.109s-16.938 3.921-20.902 21.775c-1.486 6.691 0.027 17.614 3.137 30.262l-10.716 17.166c-1.297 2.075-0.663 4.809 1.411 6.105l1.67 1.043c2.075 1.297 4.808 0.663 6.105-1.412l5.442-8.716c3.070 10.199 6.757 20.854 10.491 30.945l-8.627 13.817c-1.296 2.075-0.663 4.808 1.411 6.105l1.67 1.042c2.075 1.297 4.808 0.663 6.105-1.412l4.27-6.839c7.882 20.229 14.764 35.645 14.764 35.645l-22.327 41.425c0 0-0.047 7.228 9.476 12.942 6.944 4.166 13.62 1.404 13.62 1.404l26.298-38.465c0 0 19.663-0.932 43.394-3.437l-4.907 7.859c-1.296 2.076-0.663 4.809 1.412 6.105l1.67 1.043c2.075 1.296 4.808 0.663 6.105-1.412l9.485-15.189c9.602-1.214 19.356-2.686 28.39-4.452l-4.66 7.464c-1.296 2.076-0.663 4.808 1.412 6.105l1.67 1.043c2.075 1.296 4.808 0.663 6.105-1.412l10.368-16.605c10.572-2.858 18.858-6.286 22.591-10.387 12.297-13.505 12.048-27.668 12.048-27.668s-70.057 16.873-103.804 0.923c4.307-8.732 30.86-59.557 30.86-59.557s10.601-2.418 19.822-5.458c11.482-3.788 9.192-22.011 9.192-22.011zM505.243-25.597h-54.488l54.488 52.529v-52.529z" />
<glyph unicode="&#xe604;" d="M262.271 358.108c6.584-1.045 13.191-1.916 19.733-2.653l-1.625 12.572c-5.38 0.642-10.791 1.374-16.183 2.229-16.84 2.671-35.716 4.048-56.099 4.119l1.591-12.313c19.121-0.134 36.809-1.453 52.582-3.954zM444.050 102.22c2.705 0.497 4.23 0.853 4.449 0.905l7.923 1.899-4 7.099c-52.304 92.861-65.414 245.534-65.538 247.065l-0.497 5.999-6.009-0.365c-0.115-0.007-11.83-0.707-29.551-0.707-0.003 0-0.003 0-0.003 0-4.933 0-10.445 0.059-16.353 0.201l1.594-12.339c5.301-0.113 10.264-0.161 14.756-0.161 0 0 0.003 0 0.006 0 10.68 0 19.125 0.243 24.36 0.45 1.298-12.786 4.986-45.004 12.59-83.868 8.647-44.215 24.199-105.955 49.835-154.78-8.714-1.356-24.221-3.16-45.036-3.162-18.659 0-38.054 1.43-57.647 4.25-22.459 3.231-46.991 4.871-72.921 4.871-43.325 0-79.018-4.634-90.633-6.332-53.89 83.738-56.214 214.166-56.087 241.18 7.275 1.213 22.098 3.472 40.966 5.223l-1.576 12.197c-27.353-2.562-46.336-6.148-46.63-6.204l-4.832-0.926-0.016-0.527-1.185 0.108-7.48-27.923-0.042-0.824c-0.294-5.923-6.538-146.277 53.989-251.739l2.656-4.63 5.274 0.837c0.381 0.060 38.477 6.018 88.183 6.018 26.377 0 51.315-1.664 74.113-4.947 22.060-3.175 44.83-4.785 67.68-4.785 34.604 0 57 3.672 57.935 3.827l10.896 1.818-5.422 9.623c-1.957 3.471-3.868 7.030-5.747 10.647zM322.512 346.986l-3.524 27.265c-0.101 0.784-0.29 1.536-0.538 2.258-0.083 0.24-0.209 0.457-0.307 0.69-0.195 0.465-0.393 0.929-0.645 1.36-0.151 0.256-0.336 0.488-0.505 0.731-0.257 0.369-0.515 0.739-0.812 1.076-0.208 0.236-0.44 0.447-0.666 0.666-0.31 0.3-0.625 0.596-0.966 0.862-0.256 0.198-0.526 0.377-0.798 0.556-0.358 0.236-0.722 0.46-1.104 0.659-0.293 0.152-0.594 0.289-0.9 0.418-0.397 0.169-0.805 0.316-1.221 0.445-0.32 0.099-0.645 0.188-0.976 0.262-0.432 0.096-0.875 0.161-1.321 0.212-0.339 0.039-0.678 0.078-1.023 0.090-0.705 0.025-1.42 0.024-2.144-0.070-6.849-0.885-11.716-6.892-10.873-13.417l3.524-27.265c0.101-0.785 0.29-1.536 0.538-2.258 0.083-0.24 0.209-0.459 0.307-0.692 0.195-0.464 0.392-0.927 0.644-1.357 0.151-0.258 0.337-0.489 0.508-0.734 0.256-0.369 0.513-0.737 0.809-1.073 0.208-0.237 0.442-0.449 0.668-0.667 0.31-0.3 0.623-0.595 0.964-0.861 0.256-0.2 0.527-0.378 0.798-0.557 0.356-0.236 0.721-0.459 1.102-0.658 0.294-0.152 0.595-0.29 0.902-0.42 0.397-0.168 0.804-0.315 1.219-0.443 0.322-0.099 0.646-0.189 0.978-0.262 0.431-0.095 0.873-0.159 1.317-0.211 0.34-0.039 0.68-0.078 1.027-0.090 0.705-0.024 1.418-0.024 2.143 0.070 6.848 0.885 11.716 6.893 10.872 13.418zM214.96 262.76h-44.409l-6.196 26.851h44.408zM278.99 262.76h-44.409l-6.197 26.851h44.409zM344.051 262.76h-44.408l-6.197 26.851h44.409zM225.287 220.417h-44.408l-6.197 26.851h44.409zM289.317 220.417h-44.409l-6.196 26.851h44.408zM354.38 220.417h-44.409l-6.196 26.851h44.408zM236.648 179.107h-44.408l-6.197 26.851h44.409zM300.677 179.107h-44.409l-6.196 26.851h44.408zM365.74 179.107h-44.409l-6.196 26.851h44.408zM196.379 346.994c0.221 0.753 0.369 1.534 0.433 2.332 0.065 0.798 0.048 1.613-0.059 2.436l-3.558 27.52c-0.102 0.791-0.291 1.552-0.541 2.281-0.083 0.241-0.209 0.46-0.306 0.695-0.196 0.471-0.395 0.941-0.65 1.377-0.149 0.258-0.335 0.49-0.504 0.734-0.259 0.375-0.518 0.75-0.817 1.093-0.206 0.236-0.437 0.447-0.661 0.666-0.314 0.306-0.631 0.607-0.976 0.878-0.253 0.199-0.522 0.377-0.791 0.556-0.361 0.24-0.728 0.468-1.113 0.671-0.291 0.153-0.592 0.29-0.896 0.421-0.399 0.171-0.809 0.322-1.228 0.452-0.32 0.099-0.643 0.189-0.973 0.263-0.433 0.098-0.875 0.164-1.324 0.216-0.339 0.040-0.678 0.078-1.024 0.090-0.704 0.026-1.415 0.026-2.139-0.068-1.712-0.221-3.3-0.766-4.706-1.56-2.108-1.193-3.806-2.949-4.897-5.026-1.090-2.076-1.575-4.472-1.256-6.942l3.558-27.521c0.001-0.007 0.004-0.014 0.005-0.021 0.102-0.784 0.287-1.536 0.536-2.259 0.084-0.244 0.21-0.465 0.309-0.702 0.196-0.468 0.393-0.936 0.646-1.37 0.15-0.259 0.337-0.492 0.506-0.738 0.258-0.374 0.517-0.747 0.815-1.088 0.208-0.238 0.44-0.45 0.666-0.67 0.313-0.305 0.627-0.605 0.972-0.875 0.254-0.2 0.524-0.378 0.793-0.558 0.359-0.239 0.727-0.467 1.111-0.67 0.291-0.154 0.592-0.29 0.896-0.421 0.399-0.171 0.808-0.322 1.226-0.452 0.321-0.101 0.645-0.191 0.977-0.264 0.431-0.098 0.871-0.163 1.317-0.215 0.341-0.040 0.682-0.079 1.029-0.091 0.703-0.025 1.414-0.025 2.137 0.068v0c1.712 0.221 3.3 0.766 4.706 1.561 2.812 1.591 4.893 4.184 5.78 7.199z" />
<glyph unicode="&#xe605;" d="M255.549 314.139c-49.703 0-90.141-40.437-90.141-90.139 0-49.704 40.437-90.14 90.141-90.14 49.705 0 90.141 40.437 90.141 90.141 0 49.703-40.437 90.139-90.141 90.139zM412.095 206.567l29.592 17.433-29.594 17.434c-15.798 9.307-21.226 29.558-12.197 45.518l16.911 29.894-34.346 0.301c-18.335 0.161-33.16 14.985-33.322 33.32l-0.299 34.345-29.894-16.911c-15.961-9.029-36.211-3.603-45.518 12.196l-17.435 29.594-17.434-29.593c-9.307-15.8-29.557-21.225-45.518-12.197l-29.891 16.911-0.302-34.345c-0.161-18.336-14.987-33.159-33.322-33.32l-34.345-0.3 16.912-29.894c9.030-15.959 3.605-36.21-12.194-45.518l-29.59-17.435 29.593-17.433c15.796-9.307 21.224-29.558 12.194-45.518l-16.912-29.894 34.347-0.301c18.335-0.161 33.158-14.985 33.32-33.32l0.302-34.346 29.893 16.913c15.959 9.029 36.21 3.603 45.518-12.197l17.434-29.592 17.433 29.592c9.306 15.8 29.558 21.225 45.518 12.197l29.894-16.913 0.301 34.346c0.161 18.336 14.985 33.159 33.322 33.32l34.345 0.301-16.913 29.894c-9.032 15.959-3.604 36.211 12.194 45.518zM255.549 106.817c-64.617 0-117.183 52.565-117.183 117.183 0 64.614 52.566 117.182 117.183 117.182 64.614 0 117.182-52.567 117.182-117.182 0-64.616-52.567-117.183-117.182-117.183z" />
<glyph unicode="&#xe606;" d="M385.904 246.619c-17.788 8.464-24.519-24.714-3.457-21.219-10.196-11.244-25.459-0.21-24.792 18.231 0.498 13.773 11.284 22.718 24.415 24.877-6.566 2.457-11.678 7.366-13.347 11.778-1.671 4.416-1.369 9.192 0.634 12.897-7.305-6.996-14.753-11.251-21.727-13.724 4.252-13.113 6.522-39.362-29.966-62.13-1.362-0.85-2.688-1.674-4.015-2.498 4.156-1.15 7.979-3.064 11.248-5.692 3.81 2.841 9.122 4.366 16.586 2.524 22.683-5.597 26.486-16.763 42.156-8.774 16.588 8.455 20.051 35.276 2.264 43.73zM161.95 237.051c1.243 25.287-28.413 48.126-50.667 33.291-22.266-14.827 12.748-45.934 22.972-18.905 5.086-15.583-8.5-25.086-25.032-21.744 4.326-11.202 10.030-22.061 17.020-32.236 20.299 18.775 34.6 17.019 35.708 39.594zM274.523 120.589c-21.713 22.644-20.334 48.269-10.883 67.084-11.186-10.958-28.928-17.314-48.751-5.012 0 0-22.291 15.326-11.718 49.046-3.536-8.884-9.543-18.334-19.435-27.519 6.407-3.877 13.091-9.974 19.603-19.37 15.882-22.912 24.006-14.7 24.006-14.7s-1.863-3.272-5.101-6.327c7.334-0.695 13.867-2.911 18.183-6.142 9.761-7.308 14.605-19.403 11.231-29.808 1.289 0.001 2.612-0.139 3.975-0.531 9.772-2.811 13.057-12.33 5.494-15.514 5.281 9.943-13.209 12.233-11.687 1.889 1.518-10.342 16.142-13.183 23.29-6.323 4.368 4.19 3.722 7.276 2.934 12.252-0.738 0.599-1.142 0.977-1.142 0.977zM388.88 320.698c-4.714-9.47-9.825-16.971-15.086-22.917 1.087 0.623 2.26 1.144 3.623 1.418 8.533 1.714 14.779-4.225 10.287-9.625 0.095 9.636-14.856 4.091-9.623-3.17 5.228-7.261 17.458-3.657 20.188 4.37 2.579 7.584-2.894 8.417-7.147 18.074-4.255 9.657 7.274 12.978 7.274 12.978s-5.291-3.257 4.744-14.56c17.273-19.454 4.024-33.221 4.024-33.221-3.245-3.081-6.63-4.978-9.994-6.046 4.418-1.074 9.207-3.359 13.826-6.657 4.211 27.161 0.661 54.273-11.274 76.568-3.33-3.946-6.964-9.423-10.841-17.212zM171.708 182.923c-8.494-0.858-15.823-7.411-19.007-15.209 6.207-5.855 12.261-11.571 18.121-17.11 2.964 5.063 2.531 11.823-5.845 13.699 11.149 5.632 18.858-6.866 13.47-20.907 0.080-0.076 0.155-0.147 0.236-0.223 5.947 9.675 14.468 15.493 23.501 18.427-0.409 0.272-0.808 0.481-1.222 0.796-15.442 11.755-14.56 22.014-29.254 20.527zM236.445 112.37c0.013 0.108 0.051 0.206 0.065 0.313-9.5-3.392-18.281 0.843-17.006 10.791 9.651-15.514 27.934 8.569 12.174 14.863-12.84 5.135-25.772-6.014-28.060-18.773 28.706-27.209 48.481-46.060 51.984-49.401v-0.534c0 0 0.114 0.11 0.28 0.267 0.166-0.158 0.279-0.267 0.279-0.267v0.534c1.683 1.604 7.149 6.815 15.522 14.781-23.591-5.897-36.579 15.971-35.239 27.427zM149.946 315.855c-17.649 19.848-25.364 11.363-25.364 11.363s10.978 22.255 29.555 9.935c18.577-12.319 18.375-23.795 35.054-21.397 17.659 2.537 29.471 26.117 16.221 39.518-13.246 13.409-30.059-14.988-9.99-18.429-10.414-5.788-19.063 3.020-18.405 15.515-2.101-8.956-9.784-12.207-9.784-12.207-19.533-7.209-33.069 9.155-33.156 18.236-0.073 7.677 5.963 14.353 14.37 12.903 8.408-1.452 12.131-8.54 6.184-11.545 3.345 8.041-12.246 8.455-9.9 0.602 2.342-7.852 14.78-8.973 19.998-3.171 4.929 5.481 0.19 8.030-0.448 17.561-0.638 9.53 11.059 8.411 11.059 8.411s-5.954-0.938-0.57-13.804c2.195-5.244 2.896-9.615 2.736-13.272 0.338 1.757 0.822 3.554 1.539 5.379 5.636 14.349 21.371 18.561 35.489 13.745-18.818 10.486-42.894 14.893-69.876-2.108-24.747-15.595-39.067-40.533-43.816-68.572 12.202 8.14 30.564 13.413 49.103 11.336zM314.291 256.671c-2.5 19.381-29.919 35.048-46.050 22.392-16.142-12.65 16.809-34.309 21.409-13.062 8.028-14.717-9.873-23.821-29.404-14.649-19.532 9.172-22.474 31.519-11.302 47.091 5.35 7.455 16.987 14.165 30.946 16.666-6.239 20.067-0.898 41.86 8.23 54.288-18.605-13.287-30.408-30.758-32.237-32.224-1.611 1.292-10.969 15.014-25.894 27.348 14.058-16.789 21.668-50.957-9.154-73.215 0 0-9.025-5.891-22.512-5.565 2.246-3.415 4.352-7.124 6.25-11.222 0 0 6.793-16.625 0.434-37.639 0.85 2.161 1.808 4.38 2.934 6.679 11.949 24.407 1.878 27.959 1.878 27.959s20.398-1.011 17.324-20.028c-3.074-19.016-11.774-22.829-4.411-35.242 7.793-13.143 29.469-14.358 35.133 0.803 5.671 15.161-21.293 18.678-17.192 1.551-9.629 7.708-1.744 20.947 13.052 21.524 14.796 0.577 23.819-14.556 22.102-29.996-0.238-2.137-0.825-4.425-1.708-6.764 2.823 4.939 6.545 10.618 11.421 16.645 15.002 18.542 31.112 18.351 28.75 36.658zM334.417 194.286c0.144-0.545 0.325-1.063 0.44-1.628 4.238-20.569-10.018-35.709-23.099-24.935 17.339-0.086 14.204 19.909 4.252 24.815-0.216-0.32-0.312-0.533-0.312-0.533s0.039 0.266 0.103 0.64c-3.354 1.567-7.458 1.425-11.805-1.741-17.457-12.7-8.618-42.168 10.786-48.658 9.352-3.13 14.444-1.209 20.272 2.791 9.329 8.822 19.176 18.122 29.426 27.786 1.702 1.604 3.344 3.255 4.959 4.926-6.2 1.957-12.909 4.94-20.148 9.309-5.932 3.583-10.802 5.829-14.875 7.228zM286.137 98.68c3.652 3.469 7.534 7.154 11.712 11.118-3.619 0.633-6.87 1.603-9.716 2.717 0.346-5.649-0.522-10.185-1.995-13.836zM345.292 315.828c20.366 1.448 17.13 15.011 35.897 34.407 2.207 2.281 4.413 3.924 6.591 5.125-5.836 6.737-12.718 12.717-20.675 17.731-13.304 8.383-25.901 11.555-37.512 11.368 6.138-1.874 11.678-5.69 15.767-11.805 12.164-18.184 4.075-38.563-12.954-33.41 22.853 9.248-4.464 38.611-16.638 19.293-12.18-19.308 7.962-44.245 29.523-42.71zM438.271 303.322c-4.528 38.089-24.771 70.413-57.003 91.018-16.556 10.586-33.553 15.952-50.523 15.952-35.382 0-62.007-23.373-74.685-37.22-11.176 12.904-37.4 37.722-73.816 37.722-16.781 0-33.669-5.358-50.196-15.923-33.151-21.195-53.886-54.403-58.382-93.51-5.592-48.627 14.879-100.791 56.166-143.112 63.582-65.177 120.683-116.082 121.252-116.589l5.005-4.455 4.818 4.66c1.055 1.023 3.565 3.285 7.305 6.666 17.278 15.618 63.173 57.103 113.762 109.759 41.59 43.284 62.106 96.145 56.296 145.032zM371.56 168.296c-50.236-52.286-95.859-93.525-113.033-109.048-0.978-0.884-1.874-1.695-2.688-2.431-15.054 13.619-63.11 57.645-115.665 111.519-38.237 39.197-57.248 87.082-52.156 131.374 3.99 34.708 22.39 64.18 51.812 82.99 14.165 9.055 28.435 13.647 42.413 13.647 39.811 0 66.602-37.212 67.721-38.797l5.829-7.553 5.986 7.565c7.111 8.983 33.092 38.282 68.964 38.282 14.167 0 28.548-4.602 42.74-13.675 28.519-18.233 46.433-46.839 50.441-80.552 5.298-44.573-13.79-93.166-52.366-133.321z" />
<glyph unicode="&#xe607;" d="M227.028 365.171c28.248 26.406 26.321 25.022 30.357 52.264 0.038 0.253 0.075 15.013 0.015 15.222-3.362-28.656-39.523-26.237-44.248-54.917s9.365-46.671 9.365-46.671-10.438 20.13 4.51 34.103zM381.319 258.783l4.66 4.1-2.305 11.493-11.104 3.75-4.134-3.636c-2.505 2.678-5.103 5.265-7.791 7.759l6.293 6.931-3.817 11.909-12.221 2.65-7.156-7.882c-2.957 2.057-5.988 4.014-9.090 5.865l6.515 11.284-7.353 12.735h-14.704l-7.353-12.735 0.063-0.108c-8.415 3.284-17.19 5.844-26.244 7.612 17.322 25.327 23.898 59.341-6.471 78.278-0.47 0.293-15.872 7.318-20.072 25.2-0.080-6.872 5.553-22.127 9.424-28.108 7.149-11.048 9.702-24.491-1.219-36.181-17.876-19.135-29.798-15.767-46.593-40.428-7.406-1.747-14.608-4.029-21.564-6.803l-7.205 12.478h-14.704l-7.352-12.735 6.429-11.136c-3.028-1.84-5.986-3.786-8.872-5.825l-6.422 7.562-12.304-2.244-4.208-11.777 6.152-7.245c-2.797-2.628-5.497-5.358-8.090-8.188l-2.896 2.697-11.207-3.433-2.63-11.423 3.989-3.715c-17.496-24.986-27.778-55.376-27.778-88.126 0-84.923 69.088-154.012 154.014-154.012 84.921 0 154.010 69.089 154.010 154.012 0 33.317-10.639 64.197-28.693 89.425zM256.003 31.692c-75.911 0-137.667 61.755-137.667 137.663s61.755 111.229 137.667 111.229c75.906 0 137.661-35.32 137.661-111.229s-61.755-137.663-137.661-137.663z" />
<glyph unicode="&#xe608;" d="M182.269 237.243l7.188 4.234-7.188 4.234c-3.837 2.26-5.155 7.178-2.962 11.054l4.107 7.26-8.341 0.072c-4.453 0.039-8.053 3.639-8.091 8.093l-0.072 8.341-7.26-4.108c-3.876-2.192-8.794-0.875-11.054 2.962l-4.233 7.188-4.234-7.188c-2.26-3.837-7.178-5.155-11.054-2.962l-7.26 4.108-0.073-8.341c-0.039-4.454-3.639-8.053-8.091-8.093l-8.341-0.072 4.108-7.26c2.194-3.876 0.876-8.794-2.962-11.054l-7.188-4.234 7.188-4.234c3.837-2.26 5.155-7.178 2.962-11.054l-4.108-7.26 8.341-0.072c4.454-0.039 8.052-3.639 8.091-8.092l0.073-8.341 7.26 4.108c3.876 2.192 8.794 0.875 11.054-2.962l4.234-7.188 4.233 7.188c2.26 3.837 7.178 5.155 11.054 2.962l7.26-4.108 0.072 8.341c0.039 4.454 3.639 8.053 8.091 8.092l8.341 0.072-4.107 7.26c-2.194 3.875-0.875 8.793 2.962 11.054zM144.25 213.017c-15.693 0-28.459 12.766-28.459 28.459s12.766 28.459 28.459 28.459c15.693 0 28.459-12.766 28.459-28.459 0-15.693-12.766-28.459-28.459-28.459zM144.25 263.366c-12.071 0-21.891-9.82-21.891-21.891s9.82-21.891 21.891-21.891c12.071 0 21.891 9.82 21.891 21.891 0.001 12.071-9.82 21.891-21.891 21.891zM470.749 389.788l0.074 0.076c0 0-40.061 3.921-42.235 3.545-2.177-0.375-4.851-1.644-8.027-3.809-3.029-2.066-9.397-10.203-11.932-14.705l32.486-1.857-191.167-220.653-7.116 22.925-50.928-47.696-17.548 34.303-34.952-29.39-14.131 38.471-2.268-1.003c-0.343-0.149-35.885-14.162-48.243-19.033l27.8 175.554 1.144-0.124c0.335-8.78 2.591-16.339 6.445-21.45l3.714 2.798c-3.194 4.238-5.105 10.612-5.484 18.147l30.061-3.249c0.244-9.056 2.519-16.862 6.47-22.108l3.714 2.798c-3.289 4.365-5.218 10.99-5.516 18.807l30.079-3.251c0.149-9.335 2.434-17.392 6.481-22.762l3.714 2.798c-3.382 4.485-5.327 11.356-5.539 19.46l30.095-3.253c0.051-9.618 2.35-17.929 6.489-23.418l3.714 2.798c-3.47 4.604-5.424 11.724-5.546 20.118l30.103-3.255c-0.001-0.13-0.006-0.26-0.005-0.389 0.009-9.726 2.315-18.136 6.495-23.684l3.714 2.798c-3.561 4.728-5.531 12.104-5.559 20.775l30.123-3.257c-0.005-0.348-0.015-0.696-0.015-1.044 0.009-9.726 2.317-18.136 6.495-23.68l3.714 2.798c-3.578 4.745-5.551 12.16-5.56 20.882 0 0.181 0.006 0.363 0.008 0.543l46.217-4.996-8.623-54.347 27.541 31.672 6.652 44.368-25.904 2.795c-0.086 12.867-4.243 23.252-11.163 27.811-4.484 2.951-9.692 3.301-15.057 1-4.001-1.716-7.743-4.779-11.038-8.782-1.919 5.443-4.874 9.697-8.666 12.193-4.488 2.957-9.69 3.301-15.055 1.003-4.002-1.717-7.743-4.78-11.040-8.784-1.919 5.442-4.873 9.697-8.664 12.194-4.486 2.957-9.697 3.292-15.055 1.003-4.002-1.716-7.744-4.779-11.042-8.783-1.919 5.441-4.873 9.695-8.663 12.193-4.484 2.951-9.692 3.301-15.057 1-4.001-1.716-7.743-4.779-11.038-8.782-1.919 5.444-4.874 9.697-8.666 12.193-4.486 2.957-9.688 3.302-15.055 1.004-4.001-1.717-7.744-4.78-11.040-8.784-1.919 5.442-4.873 9.697-8.664 12.194-4.488 2.957-9.694 3.297-15.055 1.004-8.906-3.82-16.545-14.272-20.778-27.051l-29.772 3.213-42.859-257.508c83.494-24.892 159.959-45.522 279.065-40.921l25.983 170.504-25.769-23.314-20.387-120.065c-91.275-3.489-154.57 19.575-224.394 32.668l4.857 30.671c9.009 3.445 41.025 15.716 48.692 19.072l14.708-40.043 35.553 29.894 17.702-34.598 50.017 46.843 7.306-23.542 207.75 214.964 5.044-31.282c4.267 2.91 11.829 9.952 13.627 13.148 1.885 3.351 2.92 6.123 3.107 8.325 0.187 2.198-6.68 41.334-6.68 41.334zM149.553 348.315c0.001-0.813-0.023-1.635-0.055-2.459l-2.551 0.276c0.738 2.044 1.564 4.017 2.473 5.889 0.083-1.205 0.132-2.438 0.133-3.706zM184.313 343.901c0.001-0.596-0.010-1.196-0.028-1.798l-2.342 0.253c0.677 1.815 1.423 3.571 2.238 5.246 0.081-1.203 0.131-2.435 0.132-3.7zM219.075 339.488c0-0.377-0.010-0.757-0.018-1.137l-2.117 0.228c0.613 1.593 1.281 3.136 2.001 4.617 0.082-1.207 0.132-2.44 0.133-3.709zM253.834 335.078c0-0.159-0.006-0.319-0.007-0.478l-1.875 0.203c0.543 1.367 1.126 2.7 1.749 3.982 0.082-1.207 0.131-2.439 0.133-3.707zM286.966 331.024c0.47 1.144 0.969 2.258 1.494 3.341 0.078-1.145 0.124-2.315 0.129-3.517l-1.623 0.175zM303.612 351.135c3.909 1.685 7.501 1.471 10.666-0.613 5.529-3.639 8.885-12.366 9.060-23.421l-30.101 3.247c0.001 0.106 0.005 0.212 0.005 0.316-0.003 3.654-0.345 7.1-0.973 10.283 3.295 4.782 7.18 8.402 11.342 10.188zM268.852 355.548c3.913 1.671 7.504 1.466 10.664-0.613 3.646-2.398 6.341-7.011 7.812-13.036-1.983-3.126-3.729-6.616-5.18-10.355l-23.679 2.555c0.005 0.327 0.015 0.657 0.015 0.984-0.004 3.652-0.346 7.098-0.974 10.28 3.293 4.78 7.18 8.4 11.342 10.184zM234.093 359.957c3.907 1.685 7.496 1.476 10.664-0.613 3.643-2.398 6.34-7.008 7.811-13.031-2.095-3.303-3.923-7.013-5.421-10.992l-23.448 2.53c0.013 0.549 0.025 1.096 0.025 1.642-0.004 3.652-0.346 7.099-0.974 10.283 3.294 4.779 7.18 8.398 11.343 10.182zM199.331 364.371c3.91 1.68 7.502 1.476 10.666-0.613 3.643-2.397 6.339-7.007 7.81-13.030-2.207-3.479-4.12-7.41-5.66-11.631l-23.228 2.505c0.026 0.77 0.044 1.537 0.043 2.298-0.003 3.654-0.345 7.1-0.973 10.283 3.295 4.783 7.18 8.402 11.342 10.188zM164.572 368.784c3.913 1.671 7.504 1.471 10.664-0.613 3.645-2.398 6.341-7.011 7.812-13.036-2.316-3.652-4.31-7.803-5.887-12.264l-23.032 2.485c0.045 0.994 0.076 1.983 0.075 2.962-0.004 3.653-0.346 7.098-0.974 10.28 3.293 4.781 7.179 8.401 11.342 10.185zM129.813 373.193c3.907 1.681 7.496 1.476 10.664-0.613 3.643-2.398 6.339-7.008 7.811-13.031-2.427-3.826-4.496-8.2-6.107-12.904l-30.224 3.26c3.862 11.081 10.422 20.102 17.856 23.288zM363.133 316.999l-3.934-22.469 8.93 11.586zM370.294 253.325l40.997-95.214-76.313 4.36-3.010-27.231 117.025-5.298-64.588 140.563z" />
<glyph unicode="&#xe609;" d="M250.434 239.642c-6.721-4.258-7.758-13.716 0.385-16.729s12.637 3.518 14.607 9.806c4.446 14.191-2.508 25.242-5.101 30.905 1.108-8.737 0.068-17.671-9.892-23.981zM373.042 169.461c29.65 25.649 23.863 83.589 55.733 124.829-57.908-12.165-97.075-28.479-123.927-56.106 2.829 39.103-7.845 83.913-48.858 127.676-32.345-49.549-48.505-88.781-47.956-127.302-25.649 29.65-64.883 53.788-124.829 55.732 26.491-31.666 27.81-95.473 54.422-122.272-38.519 2.734-82.565-7.757-125.972-47.416 71.116 0 126.027-62.538 187.761-35.824-9.176 7.313-11.51 15.507-11.51 21.88l-7.778 100.856c0.503-0.026 5.149 0.036 5.651 0.036 8.684-38.841 134.374-39.6 140.125 0l5.144-0.036c0.004-1.423-0.179-2.791-0.495-4.115l-7.283-96.741c0-9.563-3.988-17.189-10.801-23.060 47.719-20.077 98.195 29.027 187.873 33.906-49.55 32.346-88.78 48.506-127.303 47.957zM170.506 117.424c-5.384-10.881-21.731-11.072-28.119-2.065-11.777 16.603-26.465 17.995-41.083 15.33 9.334 5.010 27.41 18.111 51.618 11.503 10.726-2.93 22.969-13.889 17.584-24.769zM172.462 209.009c-8.971-6.978-22.416-0.111-22.784 10.55-0.678 19.65-11.327 27.315-23.979 31.412 9.759 0.269 30.379 3.753 45.74-12.642 6.805-7.264 9.993-22.343 1.023-29.321zM260.764 207.924c-19.608-2.204-29.473 16.608-28.648 26.308 0.001-0.003 0.003-0.008 0.003-0.008-0.384 21.736 25.776 20.213 24.953 55.416 5.572-7.127 18.338-32.117 21.175-41.298 7.175-23.22-4.351-38.941-17.483-40.417zM343.952 238.122c16.929 14.659 36.816 9.948 46.381 9.039-12.897-3.073-24.219-9.697-27.075-28.452-1.55-10.175-13.066-17.289-23.577-8.572-10.51 8.717-3.228 21.489 4.272 27.985zM361.396 115.923c-7.599-8.437-24.777-8.232-29.916 4.435s9.185 21.185 20.911 23.197c26.464 4.538 44.7-10.045 54.265-15.828-15.418 3.891-31.253 3.747-45.26-11.803z" />
<glyph unicode="&#xe60a;" d="M299.377 160.384c15.127 14.14 14.094 13.399 16.256 27.988 0.019 0.135 0.041 8.039 0.009 8.151-1.801-15.345-21.165-14.050-23.695-29.408-2.531-15.358 5.015-24.992 5.015-24.992s-5.591 10.777 2.415 18.26zM163.383 147.715c36.987-21.906 55.52 3.313 55.52 3.313 19.752 29.613-5.297 56.695-21.734 59.627-13.897 2.478-28.070-5.305-28.311-19.451-0.243-14.146 11.341-22.389 18.821-13.623-15.725-2.979-11.145 22.551 2.294 16.317 13.44-6.228 11.219-26.839-1.089-33.558-11.624-6.349-14.627 2.159-31.694 6.125s-19.035-15.435-19.035-15.435 3.738 9.413 25.228-3.314zM143.971 199.571c5.36 0 9.719 4.361 9.719 9.719 0 5.36-4.361 9.719-9.719 9.719-5.36 0-9.72-4.361-9.72-9.719 0-5.36 4.361-9.719 9.72-9.719zM126.68 199.28l3.703-0.033c1.977-0.017 3.575-1.615 3.593-3.592l0.032-3.704 3.224 1.824c1.72 0.974 3.905 0.389 4.907-1.315l1.88-3.19 1.88 3.19c1.004 1.704 3.187 2.288 4.909 1.315l3.224-1.824 0.032 3.704c0.018 1.977 1.615 3.575 3.593 3.592l3.704 0.033-1.824 3.224c-0.974 1.721-0.389 3.905 1.315 4.908l3.19 1.88-3.19 1.88c-1.704 1.003-2.29 3.187-1.315 4.908l1.824 3.224-3.704 0.033c-1.977 0.017-3.575 1.615-3.593 3.592l-0.032 3.703-3.224-1.824c-1.72-0.973-3.905-0.389-4.909 1.315l-1.88 3.191-1.88-3.19c-1.004-1.704-3.187-2.288-4.909-1.315l-3.224 1.823-0.032-3.704c-0.018-1.977-1.615-3.575-3.593-3.592l-3.703-0.033 1.824-3.224c0.974-1.721 0.387-3.905-1.315-4.908l-3.191-1.88 3.191-1.88c1.704-1.003 2.288-3.187 1.315-4.908l-1.823-3.221zM143.971 221.926c6.968 0 12.635-5.668 12.635-12.635s-5.667-12.635-12.635-12.635c-6.968 0-12.635 5.668-12.635 12.635 0 6.967 5.667 12.635 12.635 12.635zM242.931 261.561c-0.018-0.431-0.027-0.863-0.027-1.297v-31.963c10.517-28.888 129.798-28.355 140.124-0.528v32.49c0 14.405-9.671 26.5-22.861 30.279v39.46c7.14 2.485 11.606 5.748 11.606 9.81v32.606c-0.555 26.725-118.161 25.245-117.613 0v-32.606c0-4.061 4.464-7.323 11.603-9.808v-39.462c-11.655-3.339-20.556-13.175-22.471-25.357v27.599c0 13.284-8.787 24.479-20.858 28.183v37.238c6.382 2.303 10.327 5.302 10.327 9.005v30.506c-0.519 25.005-110.55 23.619-110.040 0v-30.506c0-3.703 3.945-6.702 10.327-9.005v-37.24c-12.070-3.704-20.857-14.899-20.857-28.183v-29.905c9.733-26.738 119.046-26.532 130.739-1.316zM350.99 290.026c0-3.992-14.442-9.561-37.947-9.561-25.37 0-38.103 6.13-38.103 9.559v35.947c13.123-3.318 24.81-4.877 36.383-4.877 13.822 0 27.154 2.315 39.668 5.099v-36.166zM261.594 365.092c0 0 11.346-14.217 28.57-6.196 18.633 8.675 39.077 5.258 48.447 0 4.958-2.782 18.264 1.030 24.818 4.162 2.465 2.057 3.88 3.417 3.751 2.654-0.104-0.624-1.548-1.6-3.751-2.654-5.536-4.621-16.416-12.788-27.303-8.5-15.735 6.197-28.289 5.425-45.962 0-16.147-4.958-28.569 10.534-28.569 10.534zM213.257 319.901c0-2.144-4.053-4.746-11.293-6.671-14.028-2.321-34.459-2.309-48.479 0.021-7.22 1.921-11.262 4.511-11.262 6.648v35.375c12.227-3.216 23.151-4.731 33.964-4.731 12.918 0 25.37 2.247 37.070 4.962v-35.603zM129.678 390.257c0 0 10.616-13.781 26.731-6.007 17.434 8.409 36.561 5.096 45.327 0 4.64-2.698 17.089 0.999 23.221 4.036 2.305 1.995 3.629 3.312 3.51 2.572-0.097-0.604-1.448-1.551-3.51-2.572-5.181-4.479-15.359-12.397-25.546-8.24-14.721 6.007-26.469 5.258-43.001 0-15.109-4.806-26.732 10.211-26.732 10.211zM346.637 73.421c0.253 12.615 0.391 20.274 0.632 35.187 0.241 14.911-6.981 26.998-11.678 33.514-0.021 0.029 0.154-11.582-1.935-22.545-2.207-11.584-14.034-33.024-23.306-49.234-4.191 0.143-8.37 0.442-12.478 0.902-0.514 3.428-0.906 6.467-0.933 6.719-3.399 32.416 14.771 33.579 32.019 56.057 10.541 13.738 15.569 33.601-1.693 44.365-0.251 0.158-8.498 3.919-10.749 13.495-0.043-3.68 2.974-11.849 5.046-15.053 3.829-5.917 5.195-13.115-0.654-19.375-9.606-10.283-16-8.425-25.046-21.785-12.087-17.853-14.591-35.786-12.252-62.12-20.331 4.363-36.723 12.973-40.559 25.357 0.129 0.832 0.213 1.679 0.239 2.544v40.238c-9.689-37.582-121.407-33.695-131.101 0.545v-40.784c-1.2-42.647 122.832-43.024 130.713-3.387v-42.301c-1.317-46.846 138.745-45.976 140.122 0v43.008c-3.318-12.873-17.846-21.187-36.389-25.346z" />
<glyph unicode="&#xe60b;" d="M405.104 346.178c-17.173 13.993-34.348 8.269-60.426 6.361-26.079-1.909-53.658 4.778-78.236-0.636-29.144-6.42-61.062-27.987-96.683-34.348-71.915-12.842-65.701-81.427-65.701-81.427s-12.105 73.98 67.609 90.968c38.8 8.269 62.718 35.272 90.322 40.072 32.839 5.712 59.154-9.541 82.053-7.633 29.895 78.873-179.799 75.144-243.332-34.913-32.885-56.964-17.7-162.175-17.018-160.844 0.090 0.176 0.184 0.351 0.275 0.526l-0.045-0.432c11.128-0.827 95.641-7.162 127.018-10.271-23.956-3.767-52.463-12.348-67.358-26.414-12.152-11.478-2.184-41.365-1.007-44.733l0.401-1.152 1.077-0.572c0.647-0.345 16.013-8.425 29.907-8.426h0.002c6.232 0 11.306 1.628 15.079 4.841 7.38 6.282 14.436 21.158 20.044 35.958-2.701-20.156-2.673-40.536 2.727-55.681 6.818-19.116 44.648-22.627 48.939-22.965l1.622-0.128 1.278 1.007c1.326 1.046 32.409 25.887 25.773 48.065-3.337 11.149-16.315 26.135-29.905 39.49 11.279-5.877 22.68-10.053 32.904-10.947 0.452-0.041 0.902-0.058 1.355-0.058 17.048 0 32.88 27.548 34.627 30.69l0.594 1.065-0.288 1.187c-0.351 1.438-8.787 35.252-28.708 38.034-1.212 0.17-2.527 0.254-3.924 0.254-13.191 0-34.882-7.85-51.952-15.105 40.377 24.56 116.675 69.959 152.94 91.524 7.065 3.223 13.265 6.885 18.413 10.952 0.351 0.21 0.658 0.392 0.902 0.538l-0.154 0.064c22.43 18.252 23.983 44.424-11.127 75.091zM235.274 252.039c8.79-2.096 17.641-3.789 26.466-5.101-14.054-31.441-33.579-74.608-41.733-90.161-0.21-0.113-0.394-0.213-0.556-0.302l-0.171 0.081c-7.236 19.669-21.984 70.837-29.092 95.864 14.584 3.099 29.756 3.275 45.085-0.38zM182.893 250.622c9.183-23.837 28.241-73.893 34.422-94.202-20.123 12.719-67.547 46.609-89.983 62.968 16.386 14.273 35.311 25.515 55.561 31.234zM121.191 213.784c23.045-13.857 74.391-44.447 94.716-58.64-25.101 2.536-108.675 13.801-127.969 16.414 8.678 15.011 20.008 29.581 33.254 42.226zM185.002 81.89c-2.614-2.226-6.329-3.356-11.041-3.356h-0.002c-10.373 0.002-22.302 5.401-25.901 7.154-2.908 8.927-7.695 29.889-0.196 36.967 13.661 12.904 41.037 21.032 63.149 24.64-1.25-1.025-2.707-1.899-4.427-2.52-29.74-10.751-38.548-36.953-38.548-36.953s6.408 11.291 26.393 16.798c7.415 2.043 12.386 6.107 15.79 10.923-5.731-18.188-15.719-45.57-25.217-53.654zM281.467 81.021c3.959-13.23-13.269-31.080-21.697-38.132-10.716 1.117-36.106 6.029-40.133 17.323-7.465 20.935-3.318 54.38 3.274 80.216 1.219-2.609 1.92-5.597 1.691-8.973-2.554-37.805 21.935-60.107 21.935-60.107s-9.294 12.476-5.692 37.051c1.779 12.137-2.456 21.252-8.43 28.171 17.089-14.723 44.528-40.425 49.053-55.551zM223.673 143.355c0.041 0.152 0.081 0.308 0.122 0.46 0.403-0.329 0.828-0.678 1.268-1.041-0.462 0.193-0.925 0.388-1.391 0.582zM299.142 176.692c12.506-1.748 20.683-22.769 23.21-32.154-4.954-8.478-18.327-27.264-29.385-26.389-20.524 1.792-47.303 18.752-65.863 34.143 2.245-0.113 4.564-0.678 6.857-1.922 29.479-15.992 56.452-4.507 56.452-4.507s-13.464-2.88-31.913 9.079c-5.952 3.858-11.813 5.173-17.329 4.994 18.42 8.151 45.248 18.525 57.971 16.755zM232.853 163.022c-4.527-2.082-8.258-3.897-10.753-5.16 11.13 19.408 32.174 59.398 47.28 88.032 34.043-4.229 67.328-2.825 94.856 3.121-41.058-27.088-102.217-67.331-131.383-85.993z" />
<glyph unicode="&#xe60c;" d="M315.925 304.474c3.899-2.891 7.618-6.082 11.111-9.575 3.354-3.355 6.43-6.917 9.228-10.649 0.793-1.057 2.091-1.606 3.401-1.438s2.425 1.027 2.926 2.247l19.158 46.626c0.605 0.605-1.267 2.48-1.873 1.875l-43.473-22.893c-1.116-0.588-1.851-1.707-1.949-2.964-0.098-1.257 0.457-2.477 1.471-3.228zM342.803 163.543c-0.552 1.163-1.672 1.952-2.953 2.079-1.281 0.127-2.536-0.425-3.305-1.457-5.738-7.709-12.553-14.557-20.236-20.327-1.038-0.779-1.586-2.048-1.444-3.336 0.142-1.289 0.957-2.404 2.138-2.939l45.016-20.35c0.661-0.648 2.517 1.245 1.856 1.892l-21.072 44.438zM196.196 143.653c-3.842 2.859-7.507 6.011-10.952 9.456-3.394 3.394-6.502 7.002-9.328 10.784-0.782 1.046-2.061 1.599-3.359 1.448-1.298-0.151-2.416-0.98-2.939-2.177l-19.848-45.364c-0.591-0.59 1.282-2.465 1.874-1.875l43.97 21.49c1.149 0.562 1.923 1.682 2.042 2.955 0.12 1.274-0.432 2.519-1.459 3.283zM169.426 284.148c0.591-1.111 1.71-1.842 2.964-1.937 1.255-0.094 2.471 0.461 3.22 1.471 5.823 7.857 12.765 14.821 20.604 20.668 1.025 0.765 1.578 2.009 1.459 3.282-0.119 1.274-0.894 2.39-2.043 2.952l-50.552 24.739c-0.775 0.775-2.48-0.931-1.874-1.875l26.221-49.301zM474.55 228.301l-114.957 22.874c-1.229 0.244-2.5-0.115-3.418-0.969-0.918-0.853-1.37-2.094-1.217-3.337 0.632-5.117 0.972-10.275 1.178-15.441h-6.973c-1.087 13.646-5.135 27.108-12.211 39.365-15.473 26.8-43.095 44.047-73.629 46.477v6.758c5.533-0.207 11.026-0.563 16.42-1.223 1.183-0.144 2.363 0.294 3.163 1.176 0.801 0.883 1.123 2.099 0.863 3.263l-25.637 115.147c0 1.157-3.716 1.158-3.716 0.001l-25.82-115.121c-0.261-1.163 0.060-2.381 0.859-3.264s1.98-1.325 3.163-1.18c5.201 0.633 10.496 0.98 15.827 1.192v-6.745c-30.535-2.431-58.156-19.677-73.629-46.477-7.077-12.258-11.124-25.72-12.211-39.366h-6.477c0.204 5.173 0.541 10.339 1.172 15.463 0.145 1.18-0.292 2.359-1.172 3.161-0.881 0.801-2.094 1.125-3.256 0.87l-115.139-25.255c-1.364-0.007-1.363-3.627 0.001-3.634l115.162-25.075c1.162-0.253 2.375 0.072 3.255 0.875 0.879 0.802 1.315 1.981 1.168 3.161-0.638 5.155-0.98 10.351-1.186 15.555h6.474c1.088-13.646 5.135-27.108 12.211-39.365 15.472-26.8 43.095-44.046 73.629-46.478v-6.75c-5.781 0.213-11.522 0.572-17.157 1.238-1.187 0.14-2.368-0.306-3.165-1.197-0.797-0.891-1.109-2.113-0.839-3.278l26.766-115.132c0-1.13 3.88-1.132 3.88-0.001l26.957 115.109c0.272 1.164-0.039 2.388-0.834 3.28-0.796 0.892-1.978 1.341-3.164 1.201-5.767-0.677-11.645-1.036-17.563-1.238v6.767c30.534 2.431 58.156 19.677 73.628 46.478 7.077 12.257 11.123 25.72 12.211 39.365h6.981c-0.2-5.108-0.529-10.209-1.146-15.271-0.146-1.192 0.302-2.38 1.198-3.18 0.896-0.8 2.126-1.11 3.294-0.832l115.088 27.399c0.966 0.006 0.94 3.641-0.029 3.632zM149.905 240.071c-0.867-7.913-1.377-17.699-1.377-17.699l-102.079 1.2 99.064 20.492c1.15 0.238 2.344-0.089 3.213-0.88 0.869-0.788 1.308-1.946 1.179-3.113zM328.311 265.806c1.28-2.217 2.409-4.493 3.471-6.79l-7.601-3.194c-0.923 1.982-1.906 3.946-3.010 5.86-2.851 4.939-6.24 9.447-10.027 13.531l5.832 5.83c4.286-4.589 8.12-9.667 11.337-15.238zM291.499 299.62c7.668-3.613 14.756-8.38 21.020-14.149l-5.832-5.832c-5.513 5.032-11.724 9.21-18.433 12.401l3.245 7.58zM285.719 302.073l-3.247-7.585c-7.421 2.8-15.319 4.443-23.449 4.782v8.247c9.262-0.347 18.26-2.219 26.695-5.444zM256.356 435.291l21.432-98.865c0.248-1.147-0.067-2.344-0.849-3.22-0.781-0.877-1.935-1.325-3.103-1.209-7.921 0.791-17.711 1.209-17.711 1.209l0.231 102.085zM252.744 307.517v-8.247c-7.958-0.332-15.696-1.911-22.981-4.604l-3.195 7.604c8.285 3.104 17.103 4.906 26.175 5.246zM220.775 299.85l3.194-7.602c-7.070-3.306-13.595-7.699-19.344-13.034l-5.832 5.832c6.512 6.088 13.933 11.077 21.981 14.804zM183.458 265.806c3.11 5.387 6.798 10.315 10.911 14.786l5.831-5.83c-3.614-3.965-6.856-8.324-9.601-13.079-1.021-1.768-1.939-3.577-2.804-5.402l-7.578 3.244c0.999 2.124 2.055 4.227 3.242 6.281zM177.768 253.742l7.586-3.247c-2.862-7.614-4.45-15.574-4.761-23.582h-8.246c0.319 9.113 2.125 18.175 5.421 26.829zM172.362 220.634h8.246c0.35-7.859 1.935-15.667 4.744-23.144l-7.605-3.196c-3.231 8.501-5.027 17.392-5.385 26.339zM183.458 182.175c-1.196 2.072-2.262 4.195-3.267 6.337l7.601 3.194c0.868-1.828 1.785-3.639 2.807-5.409 2.965-5.137 6.512-9.809 10.486-14.019l-5.831-5.83c-4.476 4.716-8.466 9.959-11.797 15.728zM221.111 147.978c-7.787 3.563-14.999 8.3-21.371 14.075l5.832 5.832c5.619-5.038 11.956-9.18 18.785-12.327l-3.245-7.579zM226.913 145.58l3.247 7.585c7.548-2.743 15.577-4.288 23.827-4.495v-8.248c-9.383 0.213-18.51 1.993-27.073 5.158zM256.111 14.745l-21.475 98.856c-0.249 1.147 0.065 2.344 0.847 3.221 0.781 0.875 1.935 1.326 3.102 1.209 7.922-0.788 17.712-1.201 17.712-1.201l-0.188-102.084zM253.987 161.221v-4.517c-7.144 0.202-14.105 1.517-20.663 3.85l1.728 4.038c1.666 3.892-4.106 6.362-5.773 2.471l-1.764-4.122c-5.892 2.739-11.379 6.303-16.262 10.624l3.058 3.058c2.993 2.993-1.446 7.433-4.44 4.44l-3.105-3.105c-3.484 3.718-6.599 7.834-9.209 12.356-0.852 1.476-1.627 2.982-2.359 4.502l4.472 1.879c3.974 1.67 1.256 7.338-2.432 5.788l-4.477-1.881c-2.4 6.478-3.78 13.229-4.119 20.029h4.688c4.31 0 4 6.278 0 6.278h-4.701c0.301 6.93 1.675 13.816 4.115 20.417l4.153-1.778c3.963-1.696 6.148 4.198 2.471 5.773l-4.189 1.793c0.738 1.536 1.518 3.056 2.379 4.546 2.389 4.138 5.195 7.945 8.323 11.414l3.112-3.112c3.048-3.048 7.268 1.612 4.44 4.44l-3.124 3.124c5.005 4.603 10.658 8.413 16.773 11.308l1.436-3.419c1.443-3.435 7.232-1.002 5.788 2.432l-1.429 3.403c6.31 2.296 12.994 3.657 19.868 3.978v-3.665c0-3.726 6.279-3.726 6.279 0v3.665c7.026-0.327 13.853-1.747 20.286-4.136l-1.451-3.391c-1.466-3.425 4.306-5.895 5.772-2.471l1.464 3.418c5.776-2.781 11.132-6.385 15.912-10.7l-2.67-2.669c-2.634-2.634 1.807-7.074 4.44-4.44l2.686 2.686c3.298-3.59 6.255-7.545 8.749-11.867 0.936-1.621 1.774-3.28 2.563-4.955l-4.195-1.762c-3.818-1.602-1.198-7.239 2.432-5.788l4.17 1.752c2.344-6.474 3.664-13.214 3.959-19.998h-4.701c-4.142 0.002-3.909-6.211 0-6.278h4.687c-0.346-6.948-1.779-13.846-4.276-20.452l-4.466 1.912c-3.806 1.632-6.038-4.172-2.471-5.772l4.473-1.915c-0.676-1.382-1.398-2.748-2.174-4.092-2.503-4.337-5.47-8.303-8.782-11.903l-3.531 3.531c-2.926 2.93-7.156-1.628-4.44-4.44l3.512-3.512c-4.495-4.051-9.495-7.479-14.875-10.181l-1.698 4.041c-1.639 3.902-7.428 1.471-5.788-2.432l1.741-4.143c-6.357-2.481-13.113-4.034-20.082-4.488v4.434c-0.001 4.238-6.28 4.238-6.28 0.004zM260.266 140.505v8.248c8.054 0.468 15.865 2.231 23.195 5.114l3.195-7.604c-8.327-3.298-17.221-5.276-26.389-5.757zM292.409 148.775l-3.194 7.602c6.332 3.122 12.193 7.152 17.435 11.932l5.832-5.832c-6.009-5.529-12.764-10.152-20.074-13.702zM328.311 182.175c-3.224-5.585-7.070-10.675-11.37-15.275l-5.832 5.832c3.8 4.094 7.201 8.614 10.060 13.567 0.937 1.623 1.793 3.277 2.599 4.949l7.579-3.244c-0.939-1.97-1.935-3.92-3.036-5.829zM333.824 193.772l-7.586 3.247c2.921 7.618 4.564 15.591 4.921 23.615h8.248c-0.366-9.131-2.225-18.206-5.583-26.863zM331.174 226.913c-0.304 7.843-1.832 15.638-4.584 23.111l7.605 3.196c3.173-8.496 4.914-17.376 5.226-26.306h-8.248zM366.54 203.949c-1.139-0.254-2.329 0.048-3.209 0.814s-1.342 1.904-1.247 3.066c0.649 7.946 0.889 17.795 0.889 17.795l102.168 0.323-98.6-21.999z" />
<glyph unicode="&#xe60d;" d="M217.473 272.613h38.87c0-5.972-0.375-11.080-1.119-15.335-0.75-4.25-3.136-7.912-7.162-10.972-4.026-3.059-9.325-4.592-15.894-4.592h-50.591c-6.417 0-11.493 1.869-15.221 5.597s-5.597 8.803-5.597 15.221v132.744l1.56 1.57h13.129c13.939 0 20.911-7.613 20.911-22.834v-102.297c6.586 0.592 13.624 0.897 21.117 0.897zM333.795 329.248l35.142 0.223c15.818 0 23.731-7.466 23.731-22.383v-58.873c-19.253-6.119-39.478-9.178-60.666-9.178-10.748 0-20.259 1.793-28.54 5.375-8.281 3.581-15.221 8.727-20.818 15.444-5.597 6.716-9.814 14.96-12.651 24.736-2.837 9.776-4.255 20.856-4.255 33.24 0 13.58 1.978 25.41 5.934 35.479 3.95 10.075 9.249 18.465 15.894 25.187 6.64 6.711 14.286 11.748 22.942 15.107 8.651 3.358 17.683 5.037 27.084 5.037 19.399 0 37.604-5.369 54.618-16.118-0.152-2.385-0.712-4.815-1.679-7.276-0.973-2.462-2.163-4.853-3.581-7.162-1.418-2.315-3.060-4.407-4.923-6.266-1.87-1.869-3.772-3.472-5.706-4.815-12.389 8.059-24.921 12.091-37.604 12.091-24.329 0-36.49-17.014-36.49-51.037 0-33.876 12.461-50.82 37.381-50.82 3.429 0 6.749 0.147 9.961 0.451 3.206 0.299 6.38 0.744 9.515 1.342v14.998c0 3.429 0.033 6.417 0.114 8.95 0.076 2.538 0.185 4.701 0.337 6.488h-11.194c-6.418 0-10.858 1.233-13.319 3.695s-3.695 6.303-3.695 11.531c0.005 4.473 0.82 9.325 2.467 14.553zM162.55 201.726c12.091 0.299 22.421 0.522 31.007 0.668 8.581 0.147 15.482 0.223 20.704 0.223 16.264 0 29.061-3.397 38.392-10.183 9.325-6.793 13.993-16.976 13.993-30.556 0-6.565-1.864-12.683-5.581-18.356-3.723-5.673-8.482-9.776-14.281-12.313 3.722-1.195 7.255-3.098 10.608-5.706 3.353-2.614 6.216-5.673 8.596-9.178s4.282-7.315 5.695-11.417c1.413-4.108 2.125-8.32 2.125-12.645 0-15.373-4.89-26.752-14.661-34.137-9.776-7.385-23.617-11.080-41.522-11.080-5.526 0-12.835 0.076-21.938 0.223-9.102 0.147-20.149 0.375-33.132 0.674l-1.565 1.565v150.649l1.56 1.57zM196.573 177.327v-36.039h15.792c7.119 0 12.124 1.75 15.014 5.26 2.891 3.505 4.337 7.798 4.337 12.868s-1.483 9.293-4.451 12.651c-2.967 3.353-7.934 5.038-14.905 5.038-3.407 0-6.412 0-9.005 0s-4.852 0.070-6.781 0.223zM215.055 115.769h-18.476v-43.652c3.858 0.147 8.195 0.147 13.020 0s9.314 0.223 13.471 1.12c4.157 0.897 7.641 3.054 10.46 6.488 2.821 3.435 4.233 8.211 4.233 14.329 0 5.82-1.821 10.896-5.456 15.226-3.641 4.32-9.39 6.488-17.253 6.488zM353.493 171.502l0.223-16.531v-106.584c-5.043-0.897-11.048-1.342-18.019-1.342s-12.83 0.445-17.574 1.342v123.115l-14.325-0.223h-23.057c-0.897 4.358-1.342 9.363-1.342 14.998 0 5.64 0.451 10.635 1.342 14.998h110.584c1.195-3.913 1.793-8.651 1.793-14.21s-1.495-9.58-4.478-12.063c-2.988-2.483-7.76-3.723-14.329-3.723h-6.488l-14.329 0.223zM388.245-10.084h-241.208c-30.355 0-55.053 28.714-55.053 64.008v339.136c0 35.295 24.698 64.008 55.053 64.008h241.208c30.355 0 55.053-28.713 55.053-64.008v-339.13c0-35.295-24.698-64.013-55.053-64.013zM147.036 440.766c-21.367 0-38.751-21.4-38.751-47.706v-339.13c0-26.306 17.383-47.706 38.751-47.706h241.209c21.367 0 38.75 21.399 38.75 47.706v339.13c0 26.306-17.384 47.706-38.75 47.706h-241.208z" />
<glyph unicode="&#xe60e;" d="M214.011 318.851c40.529 37.886 37.764 35.899 43.555 74.988 0.055 0.363 0.108 21.54 0.024 21.84-4.825-41.115-56.706-37.644-63.487-78.793-6.781-41.148 13.438-66.962 13.438-66.962s-14.975 28.88 6.47 48.927zM293.269 248.219c28.244 36.806 41.714 90.025-4.538 118.864-0.674 0.42-22.772 10.501-28.798 36.156-0.113-9.86 7.967-31.746 13.521-40.328 10.257-15.852 13.921-35.139-1.749-51.911-25.738-27.551-42.871-22.575-67.105-58.369-33.328-49.228-39.466-98.675-32.249-172.662l43.22-26.901c-2.536 2.067-7.929 43.413-8.090 44.962-9.107 86.853 39.575 89.966 85.787 150.191zM311.041 269.923c-0.055 0.076 0.411-31.029-5.183-60.401-7.404-38.872-55.258-119.199-79.436-161.489 0 0 50.795-35.193 113.439-0.235 1.239 60.633 1.613 79.451 2.468 132.333 0.646 39.954-18.704 72.334-31.288 89.791z" />
<glyph unicode="&#xe60f;" d="M406.576 143.577c0 0 10.56 16.918 5.498 42.13-1.537 7.656-9.056 17.797-19.749 28.906l-0.488 27.558c-0.060 3.445-2.903 6.188-6.348 6.127-10.966-0.194-8.924-5.016-8.68-18.785-9.627 8.678-20.337 17.519-31.050 25.942l-0.447 25.209c-0.060 3.445-2.902 6.188-6.348 6.128l-2.772-0.049c-3.445-0.060-6.188-2.903-6.127-6.348l0.231-13.043c-26.835 20.217-49.897 35.585-49.897 35.585l-3.882 65.491c-9.443 12.736-32.666 8.897-38.275-0.587l-3.055-66.188c0 0-19.477-13.625-43.648-32.338-0.228 12.918 1.433 17.619-9.32 17.428-3.445-0.060-6.187-2.903-6.126-6.348l0.405-22.93c-11.819-9.478-23.988-19.67-35.084-29.76l-0.256 14.466c-0.15 8.508-15.396 8.132-15.246-0.269l0.504-28.488c-12.919-13.017-22.658-25.108-25.712-34.262-8.15-24.428 9.459-41.431 9.459-41.431s76.359 82.459 122.424 81.066c0.776-14.221 6.481-93.060 6.481-93.060s-11.376-9.962-22.068-22.068c-10.494-11.882 6.037-32.209 6.037-32.209l34.161 20.309 33.967-20.309c0 0 15.966 20.343 4.846 33.234-8.928 10.349-19.976 20.949-19.976 20.949s4.764 80.596 5.891 94.258c52.296-5.194 124.65-76.315 124.65-76.315z" />
<glyph unicode="&#xe610;" d="M431.844 91.533c79.257 118.823-21.252 227.494-87.21 239.255-55.761 9.944-112.63-21.289-113.601-78.049-0.972-56.76 45.507-89.836 75.519-54.662-63.095-11.956-44.721 90.489 9.204 65.469 53.926-24.99 45.014-107.692-4.368-134.655-46.642-25.473-58.696 8.659-127.169 24.58-68.474 15.921-76.377-61.94-76.377-61.94s14.998 37.778 101.225-13.293c148.413-87.902 222.778 13.293 222.778 13.293zM131.172 364.317c-21.505 0-39-17.495-39-39s17.495-39 39-39c21.505 0 39 17.495 39 39 0 21.505-17.495 39-39 39zM198.903 317.774l12.804 7.543-12.804 7.543c-6.836 4.026-9.183 12.788-5.276 19.693l7.317 12.934-14.861 0.13c-7.933 0.070-14.346 6.483-14.417 14.417l-0.13 14.861-12.934-7.317c-6.905-3.906-15.667-1.558-19.694 5.277l-7.543 12.804-7.543-12.804c-4.026-6.835-12.788-9.183-19.694-5.277l-12.934 7.317-0.13-14.861c-0.070-7.933-6.483-14.346-14.417-14.417l-14.861-0.13 7.317-12.934c3.906-6.905 1.558-15.667-5.276-19.693l-12.804-7.543 12.804-7.543c6.835-4.026 9.183-12.788 5.276-19.693l-7.316-12.934 14.86-0.13c7.933-0.070 14.346-6.483 14.417-14.417l0.13-14.861 12.934 7.318c6.905 3.906 15.667 1.558 19.694-5.277l7.543-12.804 7.543 12.804c4.026 6.835 12.788 9.183 19.694 5.277l12.934-7.318 0.13 14.861c0.070 7.933 6.483 14.346 14.417 14.417l14.861 0.13-7.317 12.934c-3.907 6.906-1.56 15.668 5.275 19.694zM131.172 274.616c-27.956 0-50.701 22.744-50.701 50.701 0 27.956 22.744 50.701 50.701 50.701 27.956 0 50.701-22.744 50.701-50.701 0-27.957-22.744-50.701-50.701-50.701z" />
<glyph unicode="&#xe611;" d="M314.246 376.411c-103.414 38.281-248.397-32.758-218.205-165.603 12.989-57.149 64.073-63.764 59.882-92.647-2.734-18.837-35.531-25.33-54.818-14.31 30.767-54.646 190.19-69.361 277.433 32.923 69.976 82.040 53.252 196.125-64.293 239.635zM240.905 319.451c9.666 5.328 27.487 5.075 35.748 0 3.808-8.569 3.947-19.139 0-28.023-9.365-4.839-27.541-4.927-35.748 0-3.838 8.637-3.915 19.212 0 28.023zM283.176 150.356c-11.418-2.015-27.46-1.849-37.925 0 0 92.459 4.099 93.969-14.976 93.969-1.813 5.732-2.083 18.344 0 26.331 21.341 1.639 52.902 7.482 52.902-27.539v-92.76z" />
<glyph unicode="&#xe612;" d="M205.566 186.567c-0.002 0.004-0.004 0.008-0.006 0.014-1.7-15.005 18.625-44.11 59.018-40.699 27.054 2.284 50.8 26.604 36.018 62.527-7.204 17.507-21.608 31.44-34.084 46.89v0c-2.195 4.417-5.305 9.685-9.538 17 1.693-54.462-52.2-52.106-51.408-85.733zM271.851 188.847c9.133-6.202 6.183-18.646-3.354-25.733-12.988-2.132-22.512 7.113-25.111 17.069-5.867 22.469 8.581 38.569 14.211 46.948-3.407-13.317-2.579-26.852 14.254-38.285zM382.091 303.682c-1.318 0.767-25.497 14.49-72.726 21.253v17.802c8.116 4.041 12.916 9.037 12.916 14.448 0 8.884-12.973 16.635-32.289 20.887v19.443c-14.406 14.742-51.59 16.467-65.053-0.265v-18.578c-35.793-7.036-46.007-24.055-22.11-35.946v-18.4c-44.989-7.49-72.305-22.139-72.668-22.338l-2.332-1.274 1.3-2.32c0.572-1.012 12.877-22.453 33.116-27.557 2.638-42.045 9.807-95.554 13.87-123.867-5.133-1.139-12.906-4.896-21.618-13.553 2.596-5.721 6.002-10.452 10.53-15.3 0.232-14.606 7.336-28.028 19.080-38.753-12.643-11.068-20.251-25.185-20.251-40.555h11.349c0 12.813 6.506 24.58 17.309 33.869 16.172-11.158 38.123-18.062 62.32-18.062 23.56 0 44.965 6.566 61.008 17.209 10.23-9.154 16.384-20.586 16.384-33.015h11.349c0 14.892-7.19 28.58-19.132 39.486 10.611 9.289 17.635 20.733 19.628 33.26 7.204 5.715 14.026 12.677 18.673 20.709-6.413 6.413-15.928 13.885-24.731 15.592 3.094 30.597 9.093 90.262 12.106 122.355 20.052 2.875 32.507 28.952 33.036 30.082l1.017 2.181-2.077 1.204zM236.288 393.707c9.702 7.778 32.134 6.725 42.356-0.264v-13.387c-14.383 1.922-29.108 1.897-42.356 0.373v13.278zM221.242 336.479c0.177-0.041 0.346-0.086 0.525-0.126v10.804c0 0 4.63 5.701 16.171 8.892h34.422c12.99-3.193 18.594-8.892 18.594-8.892v-20.141c-26.914 2.427-49.068 1.972-69.712-0.228v9.691zM178.424 106.594c7.066-4.937 16.067-9.738 27.399-13.528-4.687-2.122-9.066-4.543-13.115-7.229-6.756 6.045-11.7 13.082-14.284 20.757zM201.509 79.181c6.282 3.877 13.422 7.099 21.267 9.431 19.977-3.942 43.997-4.334 64.615-0.911 7.231-2.385 13.841-5.498 19.649-9.222-30.376-18.745-75.772-18.38-105.531 0.702zM316.035 84.982c-3.55 2.45-7.361 4.704-11.435 6.714 9.61 2.829 17.815 6.35 24.739 10.168-2.971-6.195-7.506-11.897-13.304-16.88zM321.068 141.268c-9.862-8.065-22.783-17.68-58.978-20.933-25.227-2.264-48.559 5.797-68.772 20.712-3.624 24.644-11.819 83.324-14.781 128.89 7.732 0.551 15.636 2.005 24.504 3.683 70.694 13.359 98.921 0.982 130.841-3.071-3.317-35.268-10.112-102.617-12.813-129.279z" />
<glyph unicode="&#xe613;" d="M308.050 159.538c11.961 2.134 24.031-0.859 32.19-7.809 3.41 11.481 18.002 55.055 54.541 99.692-41.757 24.876-137.263 50.607-137.263 50.607s-96.957-25.719-141.986-50.608c52.269-55.332 58.16-96.385 58.16-96.385l0.177-0.131c32.3 22.851 76.977-14.411 73.526-54.067l7.761 63.396 9.739-62.539c-1.26 30.591 24.611 54.535 43.154 57.844zM363.709 236.56c3.367-0.994 6.096-4.528 6.096-7.894 0-3.367-2.729-5.29-6.096-4.297-8.089 2.388-8.026 14.559 0 12.191zM344.143 249.313c4.844-1.429 8.772-6.514 8.772-11.359 0-11.521-17.542-6.482-17.542 5.177 0 4.845 3.926 7.613 8.771 6.183zM328.716 248.434c0-15.081-22.964-8.485-22.964 6.776 0 15.082 22.964 8.486 22.964-6.776zM149.47 224.369c-3.336-0.994-6.041 0.93-6.041 4.297 0 8.108 12.081 11.594 12.081 3.597-0.001-3.366-2.704-6.9-6.041-7.894zM160.167 237.953c0 11.667 17.385 16.683 17.385 5.177 0-11.667-17.385-16.681-17.385-5.177zM184.147 248.434c0 6.341 5.095 12.999 11.379 14.869 6.285 1.871 11.379-1.752 11.379-8.094 0-15.273-22.757-21.837-22.757-6.776zM202.8 154.002c-17.268 3.080-34.882-6.594-35.183-24.173s14.094-27.822 23.388-16.929c-19.54-3.703-13.851 28.025 2.851 20.276 16.701-7.74 13.941-33.353-1.352-41.702-14.446-7.889-18.178 2.682-39.384 7.613s-23.654-19.183-23.654-19.183 4.645 11.7 31.35-4.116c45.964-27.223 68.994 4.116 68.994 4.116 24.546 36.8-6.583 70.454-27.009 74.098zM357.281 99.087c-21.195-4.93-24.925-15.502-39.361-7.613-15.285 8.349-18.044 33.963-1.353 41.702 16.691 7.748 22.377-23.979 2.85-20.276 9.289-10.894 23.676-0.65 23.375 16.929-0.301 17.579-17.904 27.252-35.163 24.173-20.416-3.642-51.526-37.298-26.993-74.097 0 0 23.017-31.341 68.955-4.116 26.69 15.817 31.332 4.116 31.332 4.116s-2.447 24.113-23.641 19.183zM404.113 128.203c-14.044-3.267-16.516-10.272-26.082-5.044-10.127 5.533-11.955 22.505-0.895 27.632 11.060 5.135 14.827-15.889 1.889-13.435 6.156-7.218 15.688-0.431 15.488 11.217-0.199 11.648-11.863 18.057-23.298 16.017-13.528-2.413-34.142-24.714-17.886-49.098 0 0 15.252-20.767 45.69-2.728 17.685 10.481 20.76 2.728 20.76 2.728s-1.621 15.978-15.665 12.711zM157.867 119.709c16.059 24.384-4.306 46.684-17.669 49.098-11.298 2.041-22.819-4.368-23.016-16.017-0.198-11.648 9.22-18.435 15.3-11.217-12.782-2.454-9.061 18.569 1.864 13.435 10.926-5.128 9.119-22.1-0.885-27.632-9.451-5.228-11.892 1.776-25.765 5.044-13.873 3.267-15.475-12.71-15.475-12.71s3.038 7.752 20.508-2.728c30.068-18.040 45.135 2.727 45.135 2.727zM362.532 274.264v16.233l-16.952 5.060v27.241l-61.952 13.144c0 11.093 2.236 32.264-17.043 42.718-10.754 5.831-24.057 4.594-39.911 4.489v-47.785l-65.391-12.567v-27.241l-16.223-5.060v-18.65l113.697 38.037 103.774-35.62zM292.61 329.106l49.25-9.292v-24.255l-49.25 9.292v24.255zM216.298 304.85l-49.25-9.292v24.255l49.25 9.292v-24.255z" />
<glyph unicode="&#xe614;" d="M384.611 139.5l0.001 0.004-268.459-0.012c0.378-9.459 3.049-17.901 8.018-25.317 4.285-6.394 6.788-7.599 20.614-9.481 1.026-29.538 23.191-25.949 23.191-25.949h23.24v25.439h128.171v-25.439h23.24c0 0 22.19-3.591 23.192 26 2.164 0.317 3.911 0.74 7.582 1.416 14.77 1.577 21.483 18.418 22.444 33.339h-11.236zM385.053 154.125l5.713 43.742c-13.942 101.593-10.206 73.67-17.061 127.036-2.909 21.769-13.015 34.249-19.781 37.702-13.94 7.113-24.038 6.664-44.399 6.611-126.832 0-133.884 2.067-152.786-7.888-20.402-10.745-20.098-37.408-25.249-78.798-13.511-101.603-12.692-73.32-5.721-128.404h259.284zM142.495 178.632c0 12.159 16.636 12.135 16.636 0-0.001-12.159-16.636-12.135-16.636 0zM167.976 178.632c0 17.168 23.484 17.127 23.484 0 0.001-17.168-23.484-17.127-23.484 0zM319.143 178.632c0 17.168 23.486 17.127 23.486 0 0-17.168-23.486-17.127-23.486 0zM359.791 169.45c-10.99 0-11.004 18.363 0 18.363 10.99 0 11.005-18.363 0-18.363zM354.414 316.894c13.699 0 13.098-11.839 15.061-22.37 1.522-8.166 7.943-61.708 7.943-61.708s-85.804 0-87.507 0c-17.064 0-14.305 6.72-23.005 84.077 0.001 0 76.595 0 87.508 0zM191.286 357.805c138.69 0 127.788 8.391 127.788-28.229-51.406 0-75.832 0-113.789 0-16.411 0-13.999 12.426-13.999 28.229zM157.070 316.894c10.973 0 88 0 88 0s-4.258-37.645-6.38-56.408c-2.121-18.763-2.264-27.669-16.755-27.669-1.713 0-88 0-88 0 9.589 79.518 9.128 84.078 23.134 84.078z" />
<glyph unicode="&#xe615;" d="M407.627 142.99c0 0 10.634 17.036 5.537 42.425-1.548 7.709-9.12 17.921-19.887 29.108l-0.49 27.75c-0.062 3.47-2.923 6.231-6.392 6.169l-2.791-0.049c-3.469-0.061-6.231-2.923-6.17-6.392l0.22-12.475c-9.694 8.738-20.479 17.643-31.267 26.124l-0.45 25.385c-0.062 3.469-2.923 6.231-6.392 6.17l-2.791-0.049c-3.469-0.061-6.231-2.923-6.17-6.392l0.233-13.135c-27.022 20.357-50.245 35.834-50.245 35.834l-3.909 65.947c0 0-6.101 8.229-17.582 8.229-15.744 0-20.959-8.819-20.959-8.819l-3.077-66.649c0 0-19.613-13.72-43.952-32.563l-0.202 11.429c-0.061 3.469-2.923 6.231-6.392 6.169l-2.792-0.049c-3.469-0.062-6.23-2.923-6.168-6.392l0.407-23.090c-11.903-9.543-24.155-19.807-35.328-29.968l-0.257 14.566c-0.061 3.47-2.923 6.231-6.392 6.169l-2.792-0.049c-3.469-0.061-6.231-2.923-6.169-6.392l0.507-28.687c-13.008-13.108-22.816-25.284-25.891-34.502-8.207-24.598 9.524-41.721 9.524-41.721s76.893 83.034 123.279 81.632c0.782-14.32 6.527-93.709 6.527-93.709s-11.457-10.032-22.222-22.222c-10.567-11.966 6.079-32.433 6.079-32.433l34.399 20.45 34.204-20.45c0 0 16.078 20.485 4.88 33.466-8.99 10.423-20.116 21.096-20.116 21.096s4.798 81.158 5.932 94.916c52.659-5.231 125.518-76.849 125.518-76.849zM256-28.508c-139.232 0-252.508 113.273-252.508 252.505s113.276 252.511 252.508 252.511 252.508-113.278 252.508-252.51-113.276-252.506-252.508-252.506zM256 456.43c-128.162 0-232.43-104.269-232.43-232.433 0-128.16 104.269-232.429 232.43-232.429s232.43 104.269 232.43 232.428c0 128.164-104.269 232.433-232.43 232.433z" />
<glyph unicode="&#xe616;" d="M306.752 161.146c11.661 2.081 23.432-0.837 31.387-7.615 3.325 11.195 17.553 53.681 53.18 97.207-40.716 24.256-133.839 49.346-133.839 49.346s-94.539-25.078-138.445-49.346c50.965-53.952 56.709-93.981 56.709-93.981l0.173-0.128c31.495 22.281 75.057-14.051 71.692-52.719l7.567 61.815 9.497-60.979c-1.228 29.827 23.998 53.173 42.078 56.4zM361.022 236.246c3.283-0.969 5.944-4.415 5.944-7.697s-2.661-5.158-5.943-4.189c-7.888 2.327-7.827 14.196 0 11.887zM341.945 248.681c4.723-1.393 8.553-6.353 8.553-11.076 0-11.233-17.105-6.32-17.105 5.048 0 4.722 3.829 7.422 8.553 6.029zM326.903 247.825c0-14.704-22.391-8.273-22.391 6.607-0.001 14.706 22.391 8.274 22.391-6.607zM152.126 224.359c-3.253-0.968-5.89 0.907-5.89 4.189 0 7.906 11.779 11.304 11.779 3.508 0.001-3.283-2.636-6.728-5.889-7.697zM162.557 237.605c0 11.376 16.952 16.266 16.952 5.048 0-11.375-16.952-16.265-16.952-5.048zM185.939 247.825c0 6.183 4.968 12.674 11.095 14.499 6.127 1.825 11.095-1.709 11.095-7.892 0-14.892-22.19-21.292-22.19-6.607zM204.126 155.748c-16.839 3.003-34.011-6.428-34.305-23.57-0.294-17.139 13.742-27.128 22.804-16.507-19.053-3.611-13.505 27.325 2.779 19.771 16.285-7.546 13.593-32.52-1.319-40.662-14.085-7.692-17.725 2.615-38.402 7.423-20.678 4.808-23.065-18.704-23.065-18.704s4.529 11.409 30.567-4.014c44.817-26.544 67.274 4.014 67.274 4.014 23.935 35.881-6.417 68.697-26.334 72.25zM354.755 102.202c-20.666-4.808-24.303-15.114-38.38-7.423-14.904 8.142-17.594 33.116-1.319 40.662 16.276 7.555 21.82-23.381 2.778-19.771 9.058-10.622 23.085-0.634 22.792 16.507-0.294 17.14-17.457 26.572-34.286 23.57-19.906-3.553-50.24-36.368-26.321-72.25 0 0 22.444-30.558 67.236-4.014 26.025 15.423 30.55 4.014 30.55 4.014s-2.385 23.512-23.050 18.704zM400.418 130.591c-13.693-3.185-16.103-10.014-25.431-4.918-9.875 5.396-11.657 21.943-0.873 26.943 10.784 5.007 14.458-15.492 1.841-13.1 6.002-7.038 15.296-0.42 15.102 10.938-0.195 11.357-11.567 17.606-22.717 15.617-13.19-2.353-33.29-24.098-17.44-47.873 0 0 14.87-20.248 44.55-2.661 17.243 10.219 20.243 2.661 20.243 2.661s-1.582 15.579-15.276 12.394zM160.315 122.31c15.657 23.775-4.198 45.52-17.229 47.873-11.015 1.99-22.251-4.26-22.442-15.617-0.192-11.357 8.989-17.976 14.918-10.938-12.464-2.392-8.835 18.106 1.819 13.1 10.653-5 8.893-21.548-0.863-26.944-9.214-5.098-11.596 1.733-25.123 4.918-13.527 3.185-15.088-12.394-15.088-12.394s2.963 7.559 19.996-2.661c29.32-17.588 44.012 2.661 44.012 2.661zM359.875 273.010v15.828l-16.529 4.934v26.563l-60.407 12.816c0 10.815 2.181 31.459-16.618 41.653-10.486 5.684-23.457 4.479-38.915 4.377v-46.593l-63.761-12.253v-26.563l-15.819-4.934v-18.185l110.862 37.088 101.186-34.731zM291.697 326.484l48.020-9.061v-23.651l-48.020 9.060v23.652zM217.287 302.832l-48.022-9.060v23.651l48.022 9.061v-23.652zM256-30.041c-140.078 0-254.041 113.961-254.041 254.039s113.963 254.043 254.041 254.043 254.041-113.966 254.041-254.044-113.963-254.038-254.041-254.038zM256 457.841c-128.94 0-233.841-104.901-233.841-233.844 0-128.938 104.901-233.839 233.841-233.839s233.841 104.901 233.841 233.839c0 128.943-104.901 233.844-233.841 233.844z" />
<glyph unicode="&#xe617;" d="M384.673 139.459l0.001 0.004-268.589-0.012c0.378-9.465 3.049-17.91 8.022-25.329 4.287-6.397 6.791-7.603 20.624-9.486 1.026-29.551 23.203-25.962 23.203-25.962h23.252v25.452h128.233v-25.452h23.252c0 0 22.2-3.593 23.204 26.012 2.166 0.317 3.913 0.74 7.586 1.417 14.777 1.577 21.494 18.428 22.456 33.356h-11.243zM385.115 154.091l5.716 43.764c-13.948 101.642-10.212 73.706-17.069 127.097-2.91 21.779-13.021 34.265-19.791 37.719-13.947 7.117-24.050 6.668-44.42 6.614-126.893 0-133.948 2.067-152.861-7.892-20.411-10.75-20.108-37.426-25.261-78.836-13.517-101.653-12.698-73.354-5.724-128.466h259.41zM142.44 178.609c0 12.165 16.643 12.142 16.643 0 0-12.164-16.643-12.139-16.643 0zM167.934 178.609c0 17.175 23.495 17.135 23.495 0 0-17.175-23.495-17.135-23.495 0zM319.173 178.609c0 17.175 23.497 17.135 23.497 0 0-17.175-23.497-17.135-23.497 0zM359.841 169.424c-10.995 0-11.009 18.372 0 18.372 10.995 0 11.010-18.372 0-18.372zM354.462 316.94c13.705 0 13.104-11.844 15.068-22.381 1.524-8.17 7.947-61.738 7.947-61.738s-85.846 0-87.549 0c-17.072 0-14.312 6.724-23.017 84.117 0 0.001 76.631 0.001 87.55 0.001zM191.255 357.87c138.758 0 127.85 8.395 127.85-28.244-51.43 0-75.869 0-113.844 0-16.419 0.001-14.005 12.433-14.005 28.244zM157.021 316.94c10.978 0 88.042 0 88.042 0s-4.26-37.663-6.382-56.435c-2.123-18.772-2.265-27.683-16.763-27.683-1.713 0-88.042 0-88.042 0 9.594 79.555 9.133 84.118 23.145 84.118zM256-30.010c-140.060 0-254.011 113.947-254.011 254.009s113.95 254.012 254.011 254.012 254.010-113.952 254.010-254.013-113.95-254.007-254.011-254.007zM256 457.814c-128.924 0-233.814-104.89-233.814-233.816 0-128.923 104.889-233.811 233.814-233.811s233.814 104.889 233.814 233.811c0 128.927-104.889 233.816-233.814 233.816z" />
<glyph unicode="&#xe618;" d="M196.137 297.513c-9.367-7.304-11.951-10.362-13.784-21.644-0.018-0.105-0.555-5.843-0.555-18.995 0.293 14.851 19.936 25.908 22.083 37.785 2.147 11.877-5.696 16.976-5.696 16.976s5.014-8.615-2.047-14.122zM165.638 286.014c8.175-6.161 14.452-9.303 16.161-21.702 0 12.846 0 15.149-6.864 19.942-7.973 5.568-8.978 16.796-5.384 22.527 5.624 8.968 19.495 11.167 28.634 4.854-1.556 5.748-14.179 15.157-29.936 9.072-12.224-4.719-18.896-22.422-2.61-34.694zM276.418 243.659c-21.654-16.888-23.57-22.772-23.569-66.799 0.481 24.411 32.77 42.586 36.297 62.108 3.527 19.522-9.363 27.903-9.363 27.903s8.241-14.161-3.366-23.212zM226.286 224.756c13.438-10.126 23.755-15.292 26.565-35.671 0 21.115 0 24.901-11.282 32.781-13.106 9.153-14.758 27.608-8.851 37.029 9.244 14.741 32.044 18.357 47.067 7.978-2.558 9.447-23.308 24.915-49.208 14.913-20.092-7.759-31.060-36.858-4.292-57.029zM343.501 302.236c-14.704-11.468-16.005-15.464-16.005-45.362 0.327 16.577 22.253 28.92 24.649 42.176 2.395 13.257-6.358 18.948-6.358 18.948s5.596-9.615-2.286-15.763zM309.457 289.4c9.126-6.877 16.131-10.385 18.039-24.222 0 14.339 0 16.909-7.661 22.26-8.899 6.214-10.022 18.749-6.010 25.145 6.277 10.011 21.761 12.466 31.962 5.417-1.738 6.416-15.828 16.918-33.415 10.127-13.644-5.268-21.091-25.029-2.914-38.726zM452.856 252.873c-21.789-16.994-23.717-22.916-23.716-67.218 0.485 24.565 32.976 42.853 36.525 62.498 3.549 19.644-9.422 28.078-9.422 28.078s8.293-14.25-3.387-23.359zM402.409 233.852c13.523-10.19 23.903-15.388 26.731-35.895 0 21.247 0 25.058-11.353 32.985-13.188 9.21-14.85 27.781-8.906 37.26 9.302 14.835 32.245 18.472 47.362 8.027-2.575 9.507-23.454 25.070-49.516 15.006-20.218-7.806-31.255-37.087-4.318-57.385zM287.363 271.673l26.050 8.668c-4.863 6.107-10.97 7.351-13.798 12.44l-25.985-8.122c5.478-3.267 10.175-7.71 13.733-12.987zM195.444 275.392l15.837-4.741c2.119 5.952 7.462 11.735 14.323 13.113l-18.661 6.457c-1.672-4.046-3.853-7.613-11.5-14.828zM343.312 274.462l37.469-14.322c-0.442 9.347-0.031 14.862 5.551 21.186l-28.651 11.095c-2.236-7.714-9.096-10.157-14.369-17.958zM444.904 207.798c-7.026-8.507-9.427-14.242-11.896-22.546l19.644-32.219-98.832 26.394-13.606 91.526c-8.935-7.804-13.355-31.142-14.585-37.666 1.81-12.214 6.079-54.127 6.079-54.127l-124.42-28.257 26.305 58.647c-5.952 4.943-12.257 6.844-18.156 13.618l-32.995-74.086-125.059 44.679 107.606 83.988c-8.907 4.858-12.207 7.856-14.224 14.224l-138.863-105.238 175.714-62.779 156.162 35.461 156.317-41.747-55.192 90.125z" />
<glyph unicode="&#xe619;" d="M483.49 198.966c-19.593-4.93-23.043-15.502-36.389-7.613-14.13 8.351-16.681 33.963-1.25 41.703 15.43 7.749 20.688-23.979 2.635-20.275 8.589-10.894 21.888-0.65 21.61 16.929-0.291 18.463-18.151 27.785-33.654 23.898 18.445 10.082 46.538 41.096 68.904 17.976-2.771 9.896-10.202 26.738-30.394 32.378-20.613 5.756-39.368-24.466-47.104-4.478-0.384 1.007-0.886 1.933-1.485 2.768-11.416 15.891-36.711-21.137-80.101-25.080-45.696-4.146-59.786 46.039-59.786 46.039 3.024-25.454 10.221-42.958 19.433-54.856-21.253-5.618-38.010-13.282-47.755-13.728-11.56-0.53-26.823 8.013-49.281 13.679 8.115 11.919 14.397 28.805 17.197 52.493 0 0-14.19-51.032-59.977-46.286-44.881 4.66-72.984 46.929-81.731 23.685-7.781-20.303-26.534 10.74-47.199 5.102-20.245-5.525-27.714-22.621-30.505-32.683 21.194 22.031 49.593-6.483 64.375-16.25-13.091-0.791-24.551-9.931-24.784-24.649-0.279-17.579 13.031-27.823 21.626-16.929-18.067-3.703-12.807 28.024 2.635 20.275 15.442-7.739 12.889-33.352-1.251-41.703-13.356-7.889-16.808 2.682-36.415 7.613-19.608 4.93-21.87-19.183-21.87-19.183s4.295 11.7 28.986-4.117c33.415-21.404 53.714-6.61 60.867 0.695 1.763-3.259 3.638-6.671 5.638-10.257 26.041-46.671 67.145-42.52 87.794-36.209 20.089 6.139 63.894 39.13 63.894 39.13s47.714-35.23 74.498-42.173c25.387-6.581 58.941 0.758 83.946 48.481 7.957-7.536 27.895-20.113 59.784 0.329 24.673 15.817 28.965 4.117 28.965 4.117s-2.262 24.114-21.855 19.183zM93.594 253.071c4.521 9.042 10.685 9.221 16.567 6.757-8.555-3.816-15.067-7.585-19.105-10.135 1.612 1.413 2.537 3.378 2.537 3.378zM137.297 218.137c0 0 24.114 11.266 46.767 5.633 22.653-5.633 35.075-36.209 35.075-36.209-22.139-18.089-71.769-13.139-81.841 30.577zM429.103 250.56c-0.599-0.341-1.197-0.704-1.797-1.089-0.269 0.225-0.551 0.453-0.858 0.699 0.836 0.021 1.728 0.168 2.656 0.39zM418.317 255.774c-3.745 2.26-8.465 4.702-14.206 7.081 5.116 1.433 10.263 0.365 14.206-7.081zM353.060 182.91c-32.736-13.858-55.8 4.649-55.8 4.649s12.649 30.578 35.712 36.209c23.065 5.633 47.616-5.633 47.616-5.633s-6.141-26.171-27.529-35.226z" />
<glyph unicode="&#xe61a;" d="M437.231 301.528c0.017 0.046 0.046 0.085 0.062 0.133 0-0.001-0.609 0.209-0.062-0.133zM449.111 338.969c-24.134 3.382-23.031 2.585-24.216 2.91-0.723-12.219-13.101-27.023-30.459-27.408-17.846-0.394-33.875 10.063-38.728 26.381-0.988 3.325-1.311 6.571-1.096 9.666 0 0-16.637 2.757-34.337 5.686-29.395 4.868-20.234-23.935-20.234-23.935s10.822-43.154-13.824-69.049l3.513-0.851 0.497 1.991 5.267-1.311-0.488-1.957 5.272-1.278 0.479 1.919 5.267-1.313-0.469-1.883 5.276-1.279 0.462 1.846 5.267-1.311-0.454-1.813 5.272-1.278 0.442 1.774 5.267-1.313-0.433-1.738 5.274-1.278 0.426 1.704 5.263-1.315-0.416-1.666 5.276-1.278 0.407 1.63 5.267-1.311-0.399-1.597 5.272-1.278 0.389 1.558 5.267-1.313-0.38-1.523 5.274-1.278 0.372 1.488 5.267-1.313-0.362-1.453 5.272-1.278 0.353 1.415 5.267-1.311-0.344-1.381 5.277-1.278 0.336 1.345 5.263-1.315-0.326-1.306 5.275-1.278 0.318 1.272 5.267-1.313-0.309-1.237 5.276-1.279 0.299 1.2 5.262-1.313-0.291-1.163 5.276-1.279 0.282 1.127 5.267-1.313-0.272-1.093 5.271-1.278 0.264 1.057 5.267-1.313-0.254-1.021 5.276-1.279 0.246 0.984 5.262-1.313-0.237-0.948 5.276-1.278 0.227 0.912 5.267-1.313-0.219-0.877 3.83-0.928c13.599 9.245 21.873 21.053 24.905 37.767 5.533 30.498 3.72 41.056 3.72 41.056s0.232 33.137-36.598 38.298zM431.221 177.896l0.898 1.519-4.69 2.735-0.88-1.486-4.666 2.764 0.861 1.453-4.69 2.735-0.842-1.422-4.671 2.766 0.824 1.39-4.685 2.731-0.803-1.358-4.671 2.766 0.785 1.326-4.69 2.735-0.767-1.295-4.666 2.764 0.748 1.262-4.69 2.735-0.728-1.231-4.671 2.766 0.709 1.197-4.69 2.733-0.692-1.168-4.666 2.766 0.673 1.134-4.69 2.735-0.654-1.102-4.671 2.764 0.635 1.072-4.687 2.733-0.615-1.038-4.671 2.766 0.597 1.007-4.69 2.733-0.578-0.976-4.671 2.766 0.56 0.945-4.686 2.732-0.539-0.91-4.671 2.763 0.521 0.881-4.69 2.734-0.503-0.848-4.666 2.766 0.483 0.815-4.69 2.733-0.464-0.784-4.671 2.766 0.446 0.752-4.687 2.732-0.425-0.719-4.671 2.763 0.408 0.689-4.69 2.734-0.389-0.657-4.671 2.766 0.37 0.625-4.687 2.733-0.349-0.591-4.671 2.764 0.332 0.56-4.559 2.657c-9.741-4.798-22.102-7.068-37.839-4.9-49.272 6.79-193.351 55.527-221.194-63.957-7.154-30.702 7.444-34.985 25.325-42.775 20.318 31.498 76.712-1.652 64.77-38.663l32.574-19.935c0 0 19.313-13.214 30.17 19.99 10.523 32.176 39.472 74.089 110.167 66.858 68.705-7.026 114.384-12.449 144.686-5.358l-4.337 2.562zM225.255 247.679c11.059-1.994 15.319-7.021 27.426-9.827 8.806-2.040 20.479-2.631 28.142 3.851-3.736-14.563-36.561-21.453-52.387-9.846-12.132 8.897-26.606 12.873-35.918 4.735 0 0.001 7.105 14.226 32.738 11.086zM155.673 151.289c-3.974-5.818-73.974 23.48-78.542 33.445 30.802 38.561 86.208 24.536 127.308 22.872-15.881-6.203-31.063-30.391-48.766-56.317zM204.804 209.584c-30.041 7.521-43.423 17.13-65.862 20.072-20.703 2.714-50.173-7.806-63.167-43.152 0 28 5.501 39.503 18.382 49.63 16.287 12.805 36.937 14.237 52.53 11.145 18.017-3.571 31.285-11.448 46.468-17.623 19.194-7.806 31.653-13.47 55.904-10.965 17.884 1.846 28.278 9.954 33.666 21.537 1.683-25.053-42.428-39.533-77.921-30.645z" />
<glyph unicode="&#xe61b;" d="M178.279 226.101v56.931h-0.333c-2.482 24.205-18.858 44.237-40.996 52.154v76.792c0-6.413-41.88-6.413-41.88 0v-76.792c-22.139-7.917-38.516-27.949-40.998-52.154h-0.33v-56.933c12.799-14.010 111.739-14.009 124.537 0.001zM53.741 77.914v-57.182c0-39.046 124.537-39.046 124.537 0v57.183c-12.796-25.319-111.737-25.32-124.537-0.002zM117.296 187.832c-1.829-15.579-21.486-14.264-24.056-29.855-2.569-15.592 5.093-25.373 5.093-25.373s-5.674 10.944 2.453 18.539c15.358 14.356 14.31 13.603 16.503 28.413 0.021 0.137 0.040 8.161 0.008 8.275zM84.998 60.627l16.377-10.193c-0.961 0.783-3.004 16.45-3.066 17.036-3.451 32.909 14.995 34.089 32.506 56.909 10.702 13.946 15.806 34.111-1.72 45.038-0.256 0.159-8.629 3.979-10.912 13.7-0.043-3.736 3.019-12.029 5.123-15.281 3.886-6.007 5.274-13.315-0.663-19.669-9.753-10.439-16.245-8.553-25.427-22.116-12.627-18.654-14.952-37.389-12.218-65.423zM105.486 48.527c0 0 19.247-13.334 42.984-0.089 0.47 22.975 0.612 30.105 0.935 50.143 0.245 15.139-7.087 27.408-11.856 34.023-0.021 0.029 0.156-11.757-1.964-22.887-2.806-14.728-20.939-45.166-30.1-61.189zM115.743 412.826c-9.029 0-24.165 1.169-24.165 9.005v27.842l0.376 0.744c1.153 2.29 5.781 6.136 23.782 6.136 18.008 0 22.635-3.846 23.788-6.136l0.376-0.744v-27.842c-0.001-7.835-15.136-9.005-24.158-9.005zM98.567 422.45c1.501-1.023 7.418-2.638 17.176-2.638 9.752 0 15.669 1.615 17.169 2.638v24.909c-1.235 0.512-5.638 2.204-17.176 2.204-11.115 0-15.606-1.573-17.169-2.368v-24.744zM325.706 281.024c0-6.522-75.548-6.522-75.548 0v12.781c0 7.772 75.548 7.772 75.548 0v-12.781zM177.371 221.95v-178.686c96.542-39.336 280.774-15.387 280.889 47.159-3.931 166.531-183.788 208.313-280.889 131.528zM310.009 242.617h-44.151v45.766h44.151v-45.766zM272.846 249.603h30.176v31.79h-30.176v-31.79z" />
<glyph unicode="&#xe61c;" d="M438.125 223.683c-29.51 5.262-59.606-11.267-60.121-41.306-0.514-30.039 24.084-47.543 39.966-28.929-33.392-6.327-23.668 47.889 4.871 34.648 28.539-13.226 23.824-56.994-2.311-71.263-24.685-13.481-29.272 7.546-65.786 14.685-36.587 7.154-62.039-30.904-62.039-30.904s28.038 16.44 73.673-10.588c78.545-46.52 117.9 7.035 117.9 7.035 41.946 62.886-11.247 120.397-46.154 126.622zM362.74 141.144c-7.555 12.911-24.542 33.892-57.17 34.461-33.305 0.577-51.645-48.786-70.159-23.488-20.943 28.991-49.882-39.106-116.608-61.159-68.129-22.505-106.498 42.954-106.498 42.954 38.916-102.397 109.712-94.443 148.582-79.51 8.152 3.132 19.794 10.683 29.308 18.766 9.529 8.094 27.015 34.469 45.992 13.476 0.096 0.007 0.133-0.136 0.202-0.209 27.814-29.337 68.335 88.502 126.352 54.709zM257.303 227.847c-48.911-33.886-75.548-78.166-75.548-78.166 58.029 46.524 53.313 12.604 68.104 12.604 14.284 0 26.339 22.103 57.159 23.857 4.67 5.911 11.527 16.684 14.412 31.694 2.698 14.038 1.81 38.757 1.81 38.757s8.635-40.058 4.392-56.326c-1.904-7.301-3.188-12.301-4.031-15.612 21.557-5.215 39.139-21.195 39.139-21.195s2.204 6.827 0 34.135-38.757 65.265-38.757 65.265-25.043-10.128-49.319-24.028c-2.268-1.298-4.484-2.635-6.675-3.988l-72.579 167.559c-18.105-86.469-46.37-134.409-108.094-199.46 62.233 5.972 116.727 15.146 155.881 53.82l14.107-28.916z" />
<glyph unicode="&#xe61d;" d="M206.109 363.996c2.569 17.081 8.734 32.875 18.196 45.76 41.961 57.139 114.25 22.687 123.834-51.213 3.057 0.28 5.975 0.58 8.759 0.9-14.017 113.286-143.159 117.418-159.507 5.284 2.669-0.183 5.561-0.428 8.72-0.73zM132.7 344.717c-4.383-0.643-8.609-1.378-12.508-2.302l-31.645-303.851c2.966-0.593 11.191-3.26 23.626-6.726l20.527 312.879zM396.328 362.020l-3.545 3.545c-91.452-24.421-186.12 10.061-249.987-5.065l-22.604-344.538c10.132-2.026 72.199-14.615 165.245-14.615 90.785 0 124.503 13.094 138.016 16.135l-27.125 344.538zM246.654 215.793c2.756 16.732 23.853 15.32 25.814 32.038 0.035-0.122 0.012-8.732-0.009-8.88-2.354-15.894-1.231-15.086-17.71-30.49-8.72-8.152-2.631-19.894-2.631-19.894s-8.22 10.495-5.464 27.227zM237.81 111.327c-9.937 101.868 63.719 80.106 41.109 115.048-2.258 3.49-5.544 12.388-5.498 16.399 2.45-10.431 11.435-14.53 11.711-14.702 18.806-11.726 13.329-33.365 1.844-48.332-18.791-24.488-38.585-25.753-34.882-61.070 0.066-0.63 2.259-17.441 3.29-18.281l-17.574 10.938zM305.921 98.248c-25.472-14.214-46.126 0.095-46.126 0.095 8.699 15.212 29.257 49.687 32.3 65.663 2.276 11.943 2.085 24.591 2.108 24.56 15.747-21.843 12.92-31.535 11.717-90.318zM181.692 364.897c19.574 92.875 118.319 86.925 134.315-8.030 2.175 0.030 4.296 0.081 6.398 0.142-16.154 103.32-127.019 109.229-147.215 7.703 2.096 0.102 4.322 0.131 6.502 0.186z" />
<glyph unicode="&#xe61e;" d="M484.020 107.627c-0.284 0.24-0.579 0.483-0.877 0.73l-57.689 85.846-0.702 0.223c-81.075 25.885-126.602-7.663-139.974-20.108-2.651 3.833-16.342 21.094-52.44 28.968-33.308 7.274-65.238-1.084-66.581-1.446l-0.256-0.068-135.082-73.408c-15.138-9.121-9.456-28.995-9.456-28.995s45.972 24.413 115.941 16.717c56.117-6.173 118.843-46.36 118.843-46.36s50.412 37.44 120.448 40.311c71.529 2.932 111.579-32.242 111.579-32.242s11.849 16.711-3.754 29.831zM166.79 137.836c-48.576 8.719-88.030 4.075-114.29-2.276l114.596 62.252c3.046 0.767 33.533 8.060 64.336 1.339 33.642-7.342 47.007-23.345 49.68-27l-24.872-77.135c-7.163 6.963-37.289 33.458-89.45 42.82zM347.832 135.475c-47.241-7.149-77.291-30.74-86.719-39.145l22.993 71.304c1.713 1.966 12.764 13.998 33.592 22.721 20.8 8.709 55.873 15.796 105.063 0.261l50.296-74.844c-20.853 13.648-59.768 29.608-125.225 19.703zM226.709 191.696c-26.614 7.302-55.646 1.742-55.938 1.683l0.409-2.077c0.286 0.055 28.848 5.522 54.969-1.651 30.863-8.474 40.2-22.355 40.291-22.495l1.777 1.152c-0.384 0.594-9.767 14.672-41.508 23.387zM212.905 175.384c-33.934 6.288-64.662-1.069-64.969-1.146l0.706-2.878c0.3 0.077 30.404 7.288 63.724 1.109 33.921-6.291 45.953-23.909 46.071-24.087l2.476 1.632c-0.504 0.764-12.742 18.829-48.007 25.37zM192.742 157.484c-37.618 6.257-71.968-1.065-72.31-1.142l0.722-3.308c0.336 0.070 34.084 7.251 71.032 1.109 43.286-7.2 53.959-27.411 54.058-27.61l3.036 1.505c-0.442 0.892-11.354 21.931-56.538 29.446zM413.874 184.447l0.726 1.99c-0.577 0.211-58.43 20.696-115.49-14.741l1.117-1.799c56.163 34.875 113.079 14.758 113.647 14.551zM291.581 151.752l1.527-2.291c63.255 42.139 132.519 17.514 133.211 17.26l0.948 2.586c-0.707 0.256-71.24 25.378-135.686-17.555zM287.24 131.88l1.838-2.846c67.271 43.481 143.189 17.329 143.947 17.062l1.135 3.193c-0.775 0.276-78.224 26.995-146.92-17.409zM316.62 306.392c-24.397-20.862-31.13-29.594-35.904-61.816-0.044-0.299-1.446-16.687-1.446-54.251 0.762 42.416 51.932 73.997 57.522 107.918 5.59 33.921-14.838 48.483-14.838 48.483s13.059-24.606-5.334-40.334zM237.173 273.548c21.296-17.596 37.645-26.57 42.097-61.98 0 36.689 0 43.267-17.88 56.957-20.77 15.903-23.387 47.971-14.025 64.339 14.65 25.615 50.782 31.896 74.59 13.862-4.054 16.415-36.937 43.289-77.981 25.913-31.841-13.481-49.222-64.042-6.802-99.091z" />
<glyph unicode="&#xe61f;" d="M265.909 11.635c1.723 95.853 117.358 167.219 129.991 243.875 12.632 76.656-33.532 109.565-33.532 109.565s29.512-55.604-12.055-91.147c-76.769-65.647-84.409-88.11-84.405-262.293zM186.143 423.634c-71.954-30.463-111.232-144.722-15.367-223.929 48.126-39.763 85.072-60.045 95.132-140.065 0 82.91 0 97.776-40.406 128.714-46.936 35.938-52.851 108.407-31.696 145.396 33.107 57.885 114.76 72.079 168.56 31.324-9.161 37.098-83.471 97.829-176.225 58.56z" />
<glyph unicode="&#xe620;" d="M128.138 239.311c-0.338 2.7-3.007 4.595-5.953 4.227 0 0-6.752-2.466-15.403-3.548s-14.014-0.131-14.014-0.131c-2.945-0.369-5.066-2.864-4.728-5.563l1.438-11.494 40.099 5.014-1.439 11.494zM133.72 149.428l-12.57-1.572c-8.257 66.029-7.18 66.9-10.097 66.541l14.317 1.791c0.874 0.11 1.5 0.847 1.401 1.647l-0.166 1.329c-0.1 0.801-0.89 1.362-1.763 1.252l-28.954-3.621c-0.874-0.11-1.5-0.847-1.401-1.647 0.189-1.51 0.228-2.795 1.929-2.582l14.323 1.791c-2.922-0.37-1.666-0.916 6.597-66.979l-12.57-1.572c-0.874-0.11-1.5-0.847-1.401-1.647 0.189-1.51 0.228-2.795 1.929-2.582l28.955 3.621c0.874 0.11 1.5 0.847 1.401 1.647-0.19 1.51-0.227 2.795-1.929 2.582zM173.871 296.996l-9.499-1.188c-1.071 8.566-2.439 7.28 8.565 8.657l-3.851 30.793c-1.005 8.030-8.328 13.726-16.358 12.722l-29.699-3.714c-10.046-22.643-40.566-26.469-55.885-6.989l-29.699-3.714c-8.030-1.005-13.726-8.328-12.722-16.358l3.852-30.793c4.038 0.505 7.891 0.987 7.891 0.987 1.062-8.492 2.174-7.313-6.957-8.455l24.622-196.878c1.005-8.030 8.328-13.726 16.358-12.722l30.663 3.835c10.573 20.691 38.631 24.178 53.957 6.748l30.663 3.835c8.030 1.005 13.726 8.328 12.722 16.358l-24.623 196.876zM47.517 281.193c-1.155 9.239-3.89 7.099 18.161 9.857 1.168-9.336 3.925-7.095-18.162-9.857zM124.107 298.356c1.168-9.335 3.924-7.094-18.162-9.856-1.155 9.239-3.89 7.099 18.162 9.856zM94.893 294.703c1.168-9.335 3.924-7.094-18.162-9.857-1.156 9.24-3.891 7.1 18.162 9.857zM141.922 139.302c0.639-5.108 0.218-4.362-8.658-5.473-2.746-0.343-2.82 1.705-3.108 4.001l-19.398-2.426c0.287-2.296 0.72-4.3-2.026-4.643l-6.632-0.829c-1.418-0.177-2.7 0.732-2.861 2.033l-0.246 1.968c-6.872-0.859-12.245 3.529-12.935 9.042l-8.313 66.47c-0.605 4.837 2.46 9.344 7.162 11.168l-1.485 11.875c-0.639 5.11 3.376 9.834 8.951 10.532l29.418 3.679c5.575 0.697 10.63-2.894 11.269-8.004l1.485-11.875c5.006-0.609 9.087-4.224 9.692-9.059l8.313-66.47c0.674-5.387-3.198-11.060-10.628-11.989zM135.159 292.154c-1.189 9.503-3.428 7.157 18.161 9.857 1.168-9.335 3.925-7.095-18.161-9.857zM474.678 332.924l-31.607 4.227c-15.478-19.341-45.966-15.271-55.822 7.466l-27.726 3.708c-8.021 1.073-15.395-4.56-16.467-12.582l-4.115-30.759c4.034-0.539 7.883-1.054 7.883-1.054-1.135-8.484 0.238-7.625-8.88-6.406l-26.303-196.661c-1.073-8.022 4.561-15.394 12.582-16.467l28.69-3.837c15.49 17.318 43.511 13.55 53.897-7.208l32.57-4.356c8.021-1.073 15.394 4.56 16.467 12.582l26.303 196.661-9.488 1.269c1.143 8.542-0.52 7.663 10.486 6.191l4.115 30.759c1.071 8.023-4.561 15.395-12.584 16.468zM434.37 292.221c-1.247-9.327 1.99-7.859-20.072-4.909 1.234 9.228-1.956 7.856 20.072 4.909zM405.188 296.125c-1.247-9.327 1.99-7.86-20.072-4.909 1.235 9.228-1.955 7.855 20.072 4.909zM376.007 300.027c-1.246-9.32 1.99-7.859-20.072-4.909 1.232 9.229-1.958 7.855 20.072 4.909zM403.043 178.812c-2.553-7.853-9.051-53.95-4.837-55.7 6.316-2.622 18.553-6.027 23.132-7.825 1.356-0.531 0.676-1.675 0.676-1.675l-62.020 9.361c0 0 0.313 1.499 2.009 1.642 5.34 0.449 17.89 0.005 24.185 0.31 2.971 0.144 10.998 39.249 10.094 54.906-0.628 10.919-29.142 58.897-29.142 58.897l80.755-12.19c0 0-41.452-37.269-44.853-47.726zM443.479 283.409c1.235 9.229-1.954 7.855 20.072 4.909-1.245-9.321 1.99-7.86-20.072-4.909zM401.356 194.816c7.182-5.899 19.822 9.587 12.69 15.446-7.18 5.901-19.82-9.587-12.69-15.446zM330.335 325.923h-9.572c0 8.632-1.517 7.526 9.572 7.526v31.034c0 8.093-6.561 14.654-14.654 14.654h-29.93c-12.777-21.222-43.536-21.231-56.32 0h-29.93c-8.093 0-14.654-6.561-14.654-14.654v-31.034c4.071 0 7.952 0 7.952 0 0-8.559 1.25-7.526-7.952-7.526 0-105.332-3.295-57.764 16.494-213.065h29.062c13.058 19.219 41.333 19.198 54.376 0h22.2l23.356 162.762v50.304zM310.566 333.449c0-9.407 3.014-7.526-19.245-7.526 0 9.31-2.979 7.526 19.245 7.526zM281.125 333.449c0-9.407 3.014-7.526-19.245-7.526 0 9.577-2.513 7.526 19.245 7.526zM251.683 333.449c0-9.407 3.013-7.526-19.245-7.526 0 9.31-2.979 7.526 19.245 7.526zM222.241 333.449c0-9.407 3.013-7.526-19.245-7.526 0.001 9.577-2.512 7.526 19.245 7.526zM315.899 205.605c0 0-28.017 27.541-48.269 29.552-0.436-5.291-2.281-36.501-2.281-36.501s4.279-4.104 7.736-8.112c4.307-4.992-1.876-12.87-1.876-12.87l-13.154 7.865-13.228-7.865c0 0-6.401 7.87-2.338 12.473 4.14 4.688 8.546 8.546 8.546 8.546s-2.21 30.529-2.51 36.036c-17.838 0.54-47.407-31.392-47.407-31.392s-6.819 6.584-3.663 16.044c4.797 14.376 52.077 47.437 52.077 47.437l1.184 25.63c2.296 3.883 11.283 4.999 14.821 0.227l1.503-25.361c0 0 48.339-32.197 50.989-45.395 1.96-9.762-2.13-16.313-2.13-16.313z" />
<glyph unicode="&#xe621;" d="M207.383 219.575c0 0-33.34 19.853-21.59 54.614 11.515 34.045 46.444 48.605 31.69 59.416-12.873 9.557 12.436 18.761 12.26 35.795-0.274 26.009-21.174 28.699-38.667 43.299-10.711 8.946-14.179 40.511 23.636 34.504-7.24 1.203-11.898 5.736-27.553-1.175-0.931-0.41-1.898-0.953-2.827-1.608-12.291-8.66-14.848-14.947-10.017-30.28 13.794-28.689 49.215-30.718 28.554-49.682-15.786-14.442-26.325-23.050-18.971-30.12 0.036-0.036 0.111-0.054 0.106-0.103 13.373-12.257-9.343-19.497-16.754-38.394-7.776-19.825-12.094-56 40.135-76.264zM304.363 219.575c0 0-33.341 19.853-21.59 54.614 11.516 34.049 46.461 48.62 31.688 59.416-12.872 9.557 12.438 18.761 12.26 35.795-0.272 26.018-21.221 28.739-38.666 43.299-10.711 8.946-14.181 40.511 23.636 34.504-7.24 1.203-11.898 5.736-27.553-1.175-0.931-0.41-1.897-0.953-2.829-1.608-12.29-8.662-14.846-14.947-10.014-30.28 13.764-28.641 49.216-30.718 28.554-49.682-15.785-14.442-26.327-23.050-18.974-30.12 0.038-0.036 0.111-0.054 0.106-0.103 13.373-12.257-9.338-19.5-16.755-38.394-7.773-19.825-12.091-56 40.137-76.264zM357.073 175.771c1.425 20.009 0.793 33.676 0.793 33.676 0-26.201-239.734-26.201-239.734 0 0 0-3.477-111.329 49.433-165.528h-92.683c0-60.928 322.339-60.928 322.339 0h-87.409c9.378 9.524 16.984 20.769 23.083 32.911 0.215-0.847 0.379-1.364 0.379-1.364s-0.608 14.135 34.049 10.173c59.654-6.82 68.889 35.906 68.889 35.906 9.010 53.34-51.362 80.237-79.138 54.225zM392.627 116.286c-12.642-16.627-27.32-3.519-48.526-11.614 3.656 11.423 6.385 22.978 8.385 34.044 8.92-13.281 24.736-14.866 28.764-1.137-18.344-12.772-27.077 22.389-6.385 22.109 20.685-0.271 29.616-27.812 17.762-43.401z" />
<glyph unicode="&#xe622;" d="M303.382 321.144c5.262 0.944 12.323 1.419 21.175 1.419 10.112 0 18.851-1.106 26.228-3.318l1.267-1.657-59.414-73.211 66.050-79.13c-11.17-5.531-21.175-8.293-30.021-8.293-9.276 0-16.331 1.106-21.182 3.318-4.844 2.207-9.688 6.077-14.533 11.606l-32.87 39.803-41.406-52.358c-5.268-0.949-12.538-1.42-21.808-1.42-9.27 0-18.123 1.106-26.544 3.313l-1.267 1.899 65.107 79.606-60.048 72.499c11.163 5.526 21.174 8.293 30.020 8.293 9.27 0 16.28-1.111 21.023-3.318 4.736-2.217 9.422-6.081 14.064-11.611l27.811-33.642 36.348 46.201zM119.733 384.376v-288.286h288.281v288.286h-288.281zM132.5 371.61h262.747v-238.748l-22.665-24.005h-240.082v262.753z" />
<glyph unicode="&#xe623;" d="M335.269 316.893c-4.942 3.617-12.622 6.502-23.058 8.66-9.952 2.058-38.44-0.931-52.293-4.553l60.349-71.156c-54.393-0.033-140.12-0.070-144.28 0.030-26.842 0.642-34.943-5.453-43.322-12.038-7.992-6.28-24.078-29.98-30.243-42.903l214.948 0.313-52.625-70.324c14.022-2.897 42.627-4.399 52.459-1.826 10.31 2.698 17.829 5.979 22.576 9.849 4.742 3.861 69.506 92.95 69.506 92.95h0.294c-0.001 0-69.374 87.391-74.31 91.001z" />
<glyph unicode="&#xe624;" d="M381.42 246.872c-0.937 6.052-4.327 13.522-10.18 22.428-5.582 8.493-27.839 26.524-40.197 33.757l-7.641-92.988c-38.485 38.438-99.13 99.030-102 102.043-18.526 19.435-28.565 20.853-39.145 22.122-10.091 1.21-38.225-4.173-51.722-8.953l152.212-151.77-86.939-12.515c7.867-11.964 27.031-33.252 35.803-38.385 9.198-5.382 16.834-8.378 22.929-8.999 6.084-0.623 114.874 16.577 114.874 16.577l0.208-0.208c-0.002-0.001 12.738 110.848 11.8 116.892z" />
<glyph unicode="&#xe625;" d="M348.893 144.731c3.617 4.942 6.502 12.622 8.66 23.058 2.058 9.952-0.931 38.44-4.553 52.293l-71.156-60.349c-0.033 54.393-0.070 140.12 0.029 144.28 0.642 26.842-5.453 34.943-12.038 43.322-6.28 7.991-29.98 24.078-42.904 30.243l0.313-214.948-70.324 52.625c-2.897-14.022-4.399-42.627-1.826-52.459 2.698-10.31 5.979-17.829 9.849-22.576 3.862-4.742 92.949-69.506 92.949-69.506v-0.294c0 0.001 87.391 69.374 91.001 74.31z" />
<glyph unicode="&#xe626;" d="M278.872 98.58c6.052 0.937 13.522 4.327 22.428 10.18 8.492 5.582 26.524 27.839 33.757 40.197l-92.988 7.641c38.438 38.485 99.030 99.13 102.043 102 19.435 18.526 20.853 28.565 22.122 39.146 1.211 10.091-4.173 38.225-8.953 51.722l-151.77-152.209-12.516 86.939c-11.964-7.867-33.252-27.032-38.386-35.803-5.382-9.198-8.379-16.834-8.999-22.929-0.623-6.084 16.577-114.873 16.577-114.873l-0.208-0.208c-0.001 0 110.848-12.74 116.891-11.803z" />
<glyph unicode="&#xe627;" d="M176.731 131.107c4.942-3.617 12.622-6.502 23.058-8.66 9.952-2.058 38.44 0.931 52.293 4.553l-60.349 71.156c54.393 0.033 140.12 0.070 144.28-0.029 26.842-0.642 34.943 5.453 43.322 12.038 7.991 6.28 24.079 29.98 30.243 42.904l-214.948-0.313 52.626 70.324c-14.023 2.897-42.627 4.399-52.459 1.826-10.31-2.698-17.829-5.979-22.576-9.849-4.742-3.861-69.506-92.949-69.506-92.949h-0.294c0.001 0 69.374-87.391 74.311-91.001z" />
<glyph unicode="&#xe628;" d="M130.581 201.128c0.937-6.052 4.327-13.522 10.18-22.428 5.582-8.492 27.84-26.524 40.197-33.757l7.641 92.988c38.485-38.438 99.13-99.030 102-102.043 18.526-19.435 28.565-20.853 39.146-22.122 10.091-1.211 38.225 4.173 51.722 8.953l-152.209 151.77 86.939 12.516c-7.866 11.964-27.031 33.252-35.803 38.386-9.199 5.382-16.834 8.378-22.928 8.999-6.083 0.623-114.874-16.577-114.874-16.577l-0.208 0.208c0 0.001-12.74-110.848-11.803-116.892z" />
<glyph unicode="&#xe629;" d="M163.107 303.269c-3.617-4.942-6.502-12.622-8.66-23.058-2.058-9.952 0.931-38.44 4.553-52.293l71.156 60.349c0.033-54.393 0.070-140.12-0.030-144.28-0.642-26.842 5.453-34.943 12.038-43.322 6.28-7.991 29.98-24.079 42.903-30.243l-0.313 214.948 70.324-52.626c2.897 14.023 4.399 42.627 1.826 52.459-2.698 10.31-5.979 17.829-9.849 22.576-3.861 4.742-92.95 69.506-92.95 69.506v0.294c0-0.001-87.391-69.374-91.001-74.31z" />
<glyph unicode="&#xe62a;" d="M233.128 349.419c-6.052-0.937-13.522-4.327-22.428-10.18-8.493-5.582-26.524-27.84-33.757-40.197l92.988-7.641c-38.438-38.485-99.030-99.13-102.043-102-19.435-18.526-20.852-28.565-22.121-39.146-1.21-10.091 4.173-38.225 8.953-51.722l151.77 152.212 12.515-86.938c11.964 7.866 33.252 27.031 38.385 35.803 5.382 9.199 8.378 16.834 8.999 22.928 0.623 6.083-16.577 114.874-16.577 114.874l0.208 0.208c0.001-0.002-110.848 12.738-116.892 11.8z" />
<glyph unicode="&#xe62b;" d="M57.849 422.156v-396.31h396.303v396.31h-396.303zM75.399 404.605h361.202v-328.209l-31.159-33.002h-330.043v361.211zM228.37 113.542v103.662h-27.417v37.321h27.417c0 0 0 15.303 0 31.883 0 25.054 16.188 48.049 53.499 48.049 15.107 0 26.279-1.433 26.279-1.433l-0.89-34.872c0 0-11.389 0.108-23.817 0.108-13.461 0-15.616-6.2-15.616-16.494 0-8.126 0 17.36 0-27.243h40.507l-1.755-37.32h-38.751v-103.663h-39.454z" />
<glyph unicode="&#xe62c;" d="M57.849 422.156v-396.31h396.303v396.31h-396.303zM315.351 217.204h-38.751v-103.663h-39.456v103.663h-27.417v37.321h27.417c0 0 0 15.302 0 31.883 0 25.054 16.188 48.049 53.499 48.049 15.107 0 26.279-1.433 26.279-1.433l-0.89-34.871c0 0-11.389 0.108-23.817 0.108-13.461 0-15.616-6.2-15.616-16.493 0-1.27 0-1.72 0-1.743 0-2.889 0-9.9 0-25.5h40.507l-1.754-37.321zM435.535 47.029h-33.43l33.43 33.248v-33.248z" />
<glyph unicode="&#xe62d;" d="M57.849 422.156v-396.31h396.303v396.31h-396.303zM75.399 404.605h361.202v-328.212l-31.156-33h-330.046v361.211zM387.659 305.665c-9.688-4.296-20.1-7.201-31.027-8.506 11.152 6.685 19.719 17.273 23.752 29.889-10.438-6.191-22-10.688-34.306-13.109-9.854 10.499-23.894 17.059-39.432 17.059-29.834 0-54.023-24.187-54.023-54.021 0-4.234 0.477-8.357 1.399-12.312-44.898 2.253-84.706 23.76-111.349 56.445-4.65-7.979-7.315-17.259-7.315-27.16 0-18.743 9.536-35.278 24.034-44.966-8.856 0.28-17.186 2.71-24.469 6.757-0.005-0.226-0.005-0.452-0.005-0.68 0-26.174 18.621-48.008 43.334-52.973-4.533-1.234-9.305-1.896-14.232-1.896-3.481 0-6.865 0.339-10.164 0.969 6.875-21.461 26.826-37.082 50.466-37.517-18.488-14.49-41.782-23.126-67.094-23.126-4.36 0-8.661 0.256-12.887 0.755 23.907-15.329 52.304-24.273 82.812-24.273 99.367 0 153.707 82.32 153.707 153.708 0 2.342-0.052 4.671-0.156 6.989 10.555 7.618 19.713 17.132 26.956 27.965z" />
<glyph unicode="&#xe62e;" d="M57.849 422.156v-396.31h396.303v396.31h-396.303zM360.703 277.701c0.103-2.317 0.156-4.647 0.156-6.99 0-71.389-54.339-153.708-153.707-153.708-30.508 0-58.904 8.945-82.812 24.273 4.226-0.5 8.526-0.755 12.887-0.755 25.311 0 48.604 8.637 67.094 23.127-23.64 0.434-43.59 16.055-50.466 37.517 3.299-0.63 6.683-0.969 10.164-0.969 4.927 0 9.7 0.661 14.232 1.896-24.713 4.964-43.334 26.798-43.334 52.971 0 0.228 0 0.453 0.005 0.68 7.282-4.046 15.613-6.477 24.469-6.757-14.495 9.688-24.034 26.224-24.034 44.966 0 9.901 2.665 19.18 7.315 27.16 26.644-32.685 66.451-54.192 111.349-56.445-0.922 3.955-1.399 8.078-1.399 12.312 0 29.834 24.189 54.021 54.023 54.021 15.538 0 29.578-6.56 39.432-17.059 12.305 2.423 23.868 6.918 34.306 13.109-4.034-12.615-12.601-23.202-23.752-29.889 10.927 1.306 21.339 4.21 31.027 8.507-7.243-10.833-16.401-20.348-26.956-27.964zM435.535 47.029h-33.43l33.43 33.248v-33.248z" />
<glyph unicode="&#xe62f;" d="M57.849 422.156v-396.31h396.303v396.31h-396.303zM75.399 404.605h361.202v-328.209l-31.159-33.002h-330.043v361.211zM371.238 273.173c-1.877 17.053-14.069 30.149-31.193 31.193-56.031 3.412-112.063 3.519-168.093 0-17.123-1.075-29.381-14.132-31.193-31.193-3.481-32.781-3.451-65.562 0-98.343 1.796-17.061 14.061-30.264 31.193-31.193 67.628-3.662 122.415-3.269 168.093 0 17.112 1.224 29.457 14.125 31.193 31.193 3.389 33.346 3.542 66.153 0 98.343zM231.738 192.159v65.417l62.819-32.926-62.819-32.492z" />
<glyph unicode="&#xe630;" d="M231.738 192.159l62.819 32.493-62.819 32.925zM57.849 422.156v-396.31h396.303v396.31h-396.303zM371.239 174.829c-1.735-17.068-14.081-29.969-31.192-31.193-45.678-3.269-100.464-3.662-168.093 0-17.131 0.928-29.396 14.131-31.193 31.193-3.45 32.781-3.481 65.561 0 98.343 1.811 17.060 14.071 30.117 31.193 31.192 56.031 3.519 112.061 3.412 168.093 0 17.125-1.043 29.316-14.139 31.192-31.192 3.542-32.19 3.389-64.996 0-98.343zM435.535 47.029h-33.43l33.43 33.248v-33.248z" />
<glyph unicode="&#xe631;" d="M57.849 422.156v-396.31h396.303v396.31h-396.303zM75.399 404.605h361.202v-328.212l-31.157-33h-330.045v361.211zM325.87 330.024h-139.738c-13.278 0-24.131-10.857-24.131-24.127v-139.739c0-13.274 10.853-24.134 24.131-24.134h139.738c13.278 0 24.132 10.86 24.132 24.134v139.739c0 13.27-10.853 24.127-24.132 24.127zM290.486 300.674c0 4.655 3.81 8.465 8.462 8.465h21.248c4.657 0 8.462-3.81 8.462-8.465v-20.261c0-4.651-3.805-8.462-8.462-8.462h-21.248c-4.653 0-8.462 3.811-8.462 8.462v20.261zM256.179 273.018c20.849 0 37.757-16.378 37.757-36.584 0-20.209-16.909-36.587-37.757-36.587-20.85 0-37.761 16.378-37.761 36.588-0.001 20.206 16.911 36.583 37.761 36.583zM210.106 315.824c0 1.465 1.187 2.654 2.652 2.654 1.47 0 2.656-1.189 2.656-2.654v-53.614c0-1.468-1.187-2.657-2.656-2.657-1.465 0-2.652 1.189-2.652 2.657v53.614zM200.55 315.824c0 1.465 1.187 2.654 2.652 2.654 1.47 0 2.656-1.189 2.656-2.654v-53.614c0-1.468-1.187-2.657-2.656-2.657-1.465 0-2.652 1.189-2.652 2.657v53.614zM190.995 315.824c0 1.465 1.187 2.654 2.652 2.654 1.47 0 2.656-1.189 2.656-2.654v-53.614c0-1.468-1.187-2.657-2.656-2.657-1.465 0-2.652 1.189-2.652 2.657v53.614zM181.44 262.209v53.614c0 1.466 1.187 2.654 2.648 2.654 1.47 0 2.661-1.189 2.661-2.654v-53.614c0-1.468-1.191-2.656-2.661-2.656-1.461 0-2.648 1.189-2.648 2.656zM328.753 171.108c0-4.113-3.368-7.474-7.481-7.474h-130.916c-4.109 0-7.468 3.361-7.468 7.474v79.413h17.263c-1.564-5.112-2.409-10.525-2.409-16.132 0-31.27 26.162-56.618 58.435-56.618s58.438 25.348 58.438 56.618c0 5.607-0.848 11.020-2.413 16.132h16.548v-79.413z" />
<glyph unicode="&#xe632;" d="M212.756 247.53c1.47 0 2.657 1.189 2.657 2.656v53.614c0 1.465-1.187 2.654-2.657 2.654-1.465 0-2.652-1.189-2.652-2.654v-53.614c0-1.468 1.187-2.656 2.652-2.656zM203.202 247.53c1.47 0 2.656 1.189 2.656 2.656v53.614c0 1.465-1.187 2.654-2.656 2.654-1.465 0-2.652-1.189-2.652-2.654v-53.614c0-1.468 1.187-2.656 2.652-2.656zM193.647 247.53c1.47 0 2.656 1.189 2.656 2.656v53.614c0 1.465-1.187 2.654-2.656 2.654-1.465 0-2.652-1.189-2.652-2.654v-53.614c0-1.468 1.187-2.656 2.652-2.656zM256.178 187.824c20.849 0 37.757 16.378 37.757 36.588 0 20.204-16.909 36.583-37.757 36.583-20.85 0-37.761-16.378-37.761-36.584-0.001-20.209 16.911-36.587 37.761-36.587zM298.947 259.927h21.248c4.657 0 8.462 3.811 8.462 8.462v20.26c0 4.655-3.805 8.464-8.462 8.464h-21.248c-4.653 0-8.462-3.81-8.462-8.464v-20.26c0-4.65 3.81-8.462 8.462-8.462zM57.849 422.156v-396.31h396.303v396.31h-396.303zM350 154.134c0-13.274-10.853-24.134-24.132-24.134h-139.738c-13.278 0-24.131 10.86-24.131 24.134v139.739c0 13.27 10.853 24.127 24.131 24.127h139.738c13.278 0 24.132-10.857 24.132-24.127v-139.739zM435.535 47.029h-33.43l33.43 33.248v-33.248zM186.749 250.185v53.614c0 1.466-1.191 2.654-2.661 2.654-1.461 0-2.648-1.189-2.648-2.654v-53.614c0-1.468 1.187-2.656 2.648-2.656 1.47 0 2.661 1.189 2.661 2.656zM314.617 222.365c0-31.27-26.166-56.618-58.44-56.618-32.273 0-58.435 25.348-58.435 56.618 0 5.607 0.844 11.020 2.409 16.132h-17.263v-79.413c0-4.113 3.359-7.475 7.468-7.475h130.916c4.113 0 7.481 3.362 7.481 7.475v79.413h-16.548c1.565-5.112 2.413-10.525 2.413-16.132z" />
<glyph unicode="&#xe633;" d="M61.945 422.156v-396.31h396.303v396.31h-396.303zM79.495 404.605h361.202v-328.211l-31.157-33h-330.045v361.21zM265.213 333.186c-59.595 0-89.642-42.727-89.642-78.357 0-21.572 8.167-40.764 25.686-47.919 2.873-1.173 5.446-0.041 6.279 3.139 0.579 2.202 1.95 7.755 2.563 10.066 0.839 3.146 0.513 4.249-1.804 6.99-5.052 5.959-8.279 13.673-8.279 24.597 0 31.699 23.717 60.077 61.755 60.077 33.683 0 52.191-20.582 52.191-48.069 0-36.165-16.006-66.688-39.767-66.688-13.123 0-22.945 10.851-19.796 24.161 3.769 15.889 11.072 33.038 11.072 44.508 0 10.266-5.509 18.83-16.916 18.83-13.413 0-24.189-13.875-24.189-32.465 0-11.839 4.001-19.847 4.001-19.847s-13.727-58.163-16.133-68.349c-4.794-20.286-0.721-45.156-0.377-47.667 0.202-1.488 2.114-1.842 2.981-0.716 1.236 1.614 17.214 21.338 22.644 41.046 1.537 5.581 8.823 34.477 8.823 34.477 4.359-8.313 17.094-15.635 30.64-15.635 40.322 0 67.677 36.76 67.677 85.963-0.001 37.208-31.514 71.857-79.409 71.857z" />
<glyph unicode="&#xe634;" d="M57.849 422.156v-396.31h396.303v396.31h-396.303zM272.848 175.366c-13.546 0-26.281 7.32-30.639 15.635 0 0-7.286-28.897-8.823-34.477-5.431-19.708-21.409-39.431-22.644-41.045-0.867-1.125-2.78-0.771-2.981 0.716-0.344 2.512-4.417 27.382 0.377 47.667 2.406 10.185 16.133 68.349 16.133 68.349s-4.001 8.008-4.001 19.847c0 18.59 10.775 32.465 24.189 32.465 11.407 0 16.916-8.563 16.916-18.83 0-11.47-7.302-28.618-11.072-44.508-3.149-13.309 6.673-24.161 19.796-24.161 23.761 0 39.768 30.524 39.768 66.688 0 27.487-18.507 48.070-52.191 48.070-38.038 0-61.755-28.377-61.755-60.077 0-10.923 3.227-18.638 8.279-24.597 2.317-2.741 2.643-3.845 1.804-6.99-0.613-2.311-1.983-7.865-2.563-10.066-0.833-3.18-3.407-4.312-6.279-3.139-17.518 7.154-25.686 26.346-25.686 47.919 0 35.629 30.048 78.356 89.642 78.356 47.894 0 79.408-34.648 79.408-71.857-0.001-49.203-27.357-85.964-67.678-85.964zM435.535 47.029h-33.43l33.43 33.248v-33.248z" />
<glyph unicode="&#xe635;" d="M57.849 422.156v-396.31h396.303v396.31h-396.303zM75.399 404.605h361.202v-328.211l-31.157-33h-330.045v361.21zM251.446 322.177c1.789-1.112 3.801-2.734 6.037-4.864 2.146-2.223 4.248-4.956 6.307-8.198 1.967-3.057 3.711-6.67 5.233-10.838 1.25-4.168 1.878-9.031 1.878-14.59-0.169-10.192-2.418-18.342-6.748-24.456-2.123-2.966-4.373-5.697-6.747-8.198-2.631-2.5-5.433-5.050-8.402-7.642-1.698-1.762-3.268-3.752-4.709-5.975-1.698-2.316-2.547-5.002-2.547-8.059 0-2.965 0.87-5.419 2.612-7.364 1.478-1.854 2.917-3.474 4.31-4.864l9.663-7.92c6.006-4.911 11.272-10.328 15.8-16.258 4.266-6.020 6.487-13.896 6.661-23.623 0-13.801-6.094-26.029-18.284-36.684-12.641-11.022-30.88-16.72-54.714-17.091-19.952 0.188-34.851 4.44-44.69 12.759-9.931 7.769-14.898 17.061-14.898 27.877 0 5.272 1.616 11.142 4.845 17.615 3.136 6.474 8.81 12.16 17.026 17.058 9.227 5.272 18.919 8.785 29.072 10.541 10.056 1.481 18.409 2.31 25.054 2.497-2.054 2.7-3.884 5.588-5.49 8.663-1.876 2.979-2.812 6.566-2.812 10.758 0 2.514 0.356 4.611 1.070 6.287 0.625 1.769 1.205 3.398 1.742 4.887-3.237-0.37-6.287-0.556-9.154-0.556-15.163 0.185-26.722 4.955-34.673 14.31-8.322 8.706-12.482 18.846-12.482 30.426 0 13.986 5.894 26.674 17.685 38.068 8.098 6.667 16.514 11.021 25.244 13.059 8.641 1.758 16.742 2.64 24.302 2.64h56.97l-17.594-10.269h-17.566zM262.452 158.192c0 7.228-2.361 13.528-7.076 18.9-4.989 5.098-12.787 11.351-23.4 18.763-1.815 0.187-3.946 0.277-6.394 0.277-1.453 0.188-5.172 0-11.157-0.555-5.897-0.834-11.929-2.176-18.094-4.029-1.453-0.556-3.493-1.389-6.123-2.503-2.631-1.202-5.306-2.918-8.026-5.14-2.631-2.315-4.851-5.188-6.667-8.618-2.087-3.613-3.129-7.966-3.129-13.064 0-10.005 4.533-18.25 13.604-24.738 8.617-6.485 20.409-9.82 35.374-10.007 13.424 0.187 23.674 3.15 30.748 8.894 6.893 5.654 10.34 12.928 10.34 21.82zM222.733 241.697c7.499 0.278 13.747 2.97 18.748 8.077 2.411 3.619 3.96 7.332 4.649 11.138 0.412 3.804 0.62 7.006 0.62 9.607 0 11.231-2.873 22.555-8.617 33.973-2.694 5.476-6.24 9.931-10.638 13.365-4.49 3.248-9.651 4.965-15.487 5.153-7.72-0.188-14.141-3.296-19.256-9.329-4.316-6.314-6.381-13.369-6.194-21.162 0-10.304 3.013-21.028 9.045-32.165 2.918-5.198 6.686-9.607 11.303-13.227 4.615-3.621 9.891-5.429 15.827-5.429zM363.793 301.337h-29.892v29.894h-14.481v-29.894h-29.892v-14.481h29.892v-29.892h14.481v29.892h29.892z" />
<glyph unicode="&#xe636;" d="M225.581 196.134c-1.452 0.188-5.172 0-11.157-0.555-5.897-0.834-11.928-2.176-18.094-4.029-1.453-0.556-3.494-1.389-6.123-2.503-2.631-1.202-5.305-2.918-8.026-5.14-2.631-2.315-4.851-5.188-6.667-8.618-2.087-3.613-3.129-7.966-3.129-13.064 0-10.005 4.533-18.25 13.604-24.738 8.617-6.485 20.409-9.82 35.374-10.007 13.424 0.187 23.674 3.151 30.748 8.896 6.893 5.654 10.342 12.927 10.342 21.82 0 7.228-2.361 13.528-7.076 18.9-4.989 5.098-12.787 11.35-23.4 18.763-1.815 0.187-3.946 0.277-6.395 0.277zM57.849 422.156v-396.31h396.303v396.31h-396.303zM257.484 317.313c2.146-2.223 4.248-4.956 6.307-8.198 1.967-3.057 3.711-6.67 5.233-10.838 1.25-4.168 1.878-9.031 1.878-14.59-0.17-10.191-2.418-18.342-6.748-24.455-2.123-2.966-4.373-5.697-6.747-8.198-2.631-2.5-5.433-5.050-8.402-7.642-1.698-1.762-3.268-3.752-4.709-5.975-1.698-2.316-2.547-5.002-2.547-8.059 0-2.966 0.87-5.42 2.612-7.364 1.478-1.854 2.917-3.474 4.31-4.864l9.663-7.92c6.006-4.912 11.272-10.328 15.8-16.258 4.267-6.020 6.488-13.896 6.661-23.622 0-13.803-6.095-26.029-18.284-36.684-12.641-11.022-30.88-16.72-54.714-17.091-19.952 0.188-34.851 4.44-44.69 12.759-9.931 7.768-14.898 17.061-14.898 27.877 0 5.271 1.615 11.142 4.845 17.615 3.136 6.474 8.81 12.16 17.026 17.058 9.227 5.272 18.919 8.785 29.072 10.541 10.056 1.481 18.409 2.31 25.054 2.497-2.054 2.7-3.884 5.588-5.49 8.663-1.876 2.979-2.812 6.566-2.812 10.758 0 2.514 0.357 4.611 1.070 6.287 0.625 1.769 1.205 3.398 1.742 4.887-3.237-0.37-6.287-0.556-9.154-0.556-15.163 0.185-26.722 4.955-34.673 14.31-8.322 8.706-12.482 18.846-12.482 30.426 0 13.987 5.894 26.675 17.685 38.068 8.098 6.667 16.514 11.022 25.244 13.059 8.641 1.758 16.742 2.64 24.302 2.64h56.97l-17.594-10.269h-17.566c1.789-1.112 3.801-2.734 6.037-4.864zM363.793 286.856h-29.892v-29.892h-14.481v29.892h-29.892v14.481h29.892v29.892h14.481v-29.892h29.892v-14.481zM435.535 47.029h-33.43l33.43 33.248v-33.248zM227.494 317.858c-4.49 3.248-9.651 4.965-15.487 5.153-7.72-0.188-14.141-3.296-19.256-9.329-4.316-6.314-6.381-13.369-6.194-21.162 0-10.303 3.013-21.027 9.045-32.165 2.918-5.198 6.686-9.607 11.303-13.227 4.616-3.622 9.891-5.43 15.827-5.43 7.5 0.278 13.747 2.97 18.748 8.077 2.411 3.619 3.961 7.332 4.649 11.138 0.412 3.804 0.62 7.006 0.62 9.607 0 11.231-2.873 22.555-8.617 33.973-2.694 5.476-6.239 9.932-10.638 13.367z" />
</font>
</defs>
</svg>
